×

¿Problemas para descargar con Mozilla, EDGE? Deshabilita la opción "Abrir vinculos en una pestaña nueva" tal como lo muestra ésta imagen.

Bob Marley: One Love (2024) AMZN WEB-DL 1080p Latino

38 vistas

Información de Bob Marley: One Love (2024) AMZN WEB-DL 1080p Latino

Datos de la película

  • Calidad: WEBDL
  • Audio: Español Latino AC3 5.1 WEB-DL - Ingles AC3 5.1 WEB-DL
  • Subtitulos: Ingles SRT
  • Resolución: 1920x800p
  • Formato: MKV
  • Codec: H.264
  • Encoder: Melkor
  • Mediainfo: Clic para Mostrar Datos Ver
  • Bob Marley One Love (2024) AMZN WEB 1080p Latino.mkv
    Format                      : Matroska
    Format version              : Version 4
    File size                   : 6.36 GiB
    Duration                    : 1 h 49 min
    Overall bit rate            : 8 285 kb/s
    Movie name                  : Bob Marley One Love (2024) CinemaniaHDD.Net
    Encoded date                : UTC 2024-03-19 16:25:08
    Writing application         : mkvmerge v56.1.0 ('My Friend') 64-bit
    Writing library             : libebml v1.4.2 + libmatroska v1.6.4
    Attachments                 : CINEMANIAHD.png
    Site                        : CinemaniaHDD.Net
    Uploader                    : Melkor

    Video
    ID                          : 1
    Format                      : AVC
    Format/Info                 : Advanced Video Codec
    Format profile              : High@L4
    Format settings             : CABAC / 4 Ref Frames
    Format settings, CABAC      : Yes
    Format settings, Reference  : 4 frames
    Format settings, GOP        : M=4, N=48
    Codec ID                    : V_MPEG4/ISO/AVC
    Duration                    : 1 h 49 min
    Bit rate mode               : Constant
    Bit rate                    : 6 362 kb/s
    Nominal bit rate            : 10 000 kb/s
    Width                       : 1 920 pixels
    Height                      : 800 pixels
    Display aspect ratio        : 2.40:1
    Frame rate mode             : Constant
    Frame rate                  : 23.976 (24000/1001) FPS
    Color space                 : YUV
    Chroma subsampling          : 4:2:0
    Bit depth                   : 8 bits
    Scan type                   : Progressive
    Bits/(Pixel*Frame)          : 0.173
    Stream size                 : 4.88 GiB (77%)
    Title                       : Web HD1080p [CinemaniaHDD]
    Language                    : English
    Default                     : Yes
    Forced                      : Yes
    Color range                 : Limited
    Color primaries             : BT.709
    Transfer characteristics    : BT.709
    Matrix coefficients         : BT.709

    Audio #1
    ID                          : 2
    Format                      : AC-3
    Format/Info                 : Audio Coding 3
    Commercial name             : Dolby Digital
    Codec ID                    : A_AC3
    Duration                    : 1 h 49 min
    Bit rate mode               : Constant
    Bit rate                    : 640 kb/s
    Channel(s)                  : 6 channels
    Channel layout              : L R C LFE Ls Rs
    Sampling rate               : 48.0 kHz
    Frame rate                  : 31.250 FPS (1536 SPF)
    Compression mode            : Lossy
    Stream size                 : 503 MiB (8%)
    Title                       : Español Latino AC3 [CinemaniaHDD]
    Language                    : Spanish
    Service kind                : Complete Main
    Default                     : Yes
    Forced                      : Yes

    Audio #2
    ID                          : 3
    Format                      : E-AC-3
    Format/Info                 : Enhanced AC-3
    Commercial name             : Dolby Digital Plus
    Codec ID                    : A_EAC3
    Duration                    : 1 h 49 min
    Bit rate mode               : Constant
    Bit rate                    : 640 kb/s
    Channel(s)                  : 6 channels
    Channel layout              : L R C LFE Ls Rs
    Sampling rate               : 48.0 kHz
    Frame rate                  : 31.250 FPS (1536 SPF)
    Compression mode            : Lossy
    Stream size                 : 503 MiB (8%)
    Title                       : Español Latino EAC3 [CinemaniaHDD]
    Language                    : Spanish
    Service kind                : Complete Main
    Default                     : No
    Forced                      : No

    Audio #3
    ID                          : 4
    Format                      : E-AC-3
    Format/Info                 : Enhanced AC-3
    Commercial name             : Dolby Digital Plus
    Codec ID                    : A_EAC3
    Duration                    : 1 h 49 min
    Bit rate mode               : Constant
    Bit rate                    : 640 kb/s
    Channel(s)                  : 6 channels
    Channel layout              : L R C LFE Ls Rs
    Sampling rate               : 48.0 kHz
    Frame rate                  : 31.250 FPS (1536 SPF)
    Compression mode            : Lossy
    Stream size                 : 503 MiB (8%)
    Title                       : Ingles [CinemaniaHDD]
    Language                    : English
    Service kind                : Complete Main
    Default                     : No
    Forced                      : No

    Text
    ID                          : 5
    Format                      : UTF-8
    Codec ID                    : S_TEXT/UTF8
    Codec ID/Info               : UTF-8 Plain Text
    Duration                    : 1 h 46 min
    Bit rate                    : 68 b/s
    Count of elements           : 1799
    Stream size                 : 53.5 KiB (0%)
    Title                       : Ingles-SRT [CinemaniaHDD]
    Language                    : English
    Default                     : No
    Forced                      : No

  • Peso: 6.36GiB

Sinopsis

Descargar Bob Marley: One Love (2024) AMZN WEB-DL 1080p Latino. Una celebración de la vida y la música de un icono que inspiró a generaciones a través de su mensaje de amor y unidad. Por primera vez en la gran pantalla, descubrimos la historia de superación de la adversidad de Bob y la travesía que subyace a su música revolucionaria.

Ficha técnica

Video trailer de la película

Enlaces de descarga

Rip de Bluray

Descargar Bob Marley: One Love (2024) AMZN WEB-DL 1080p Latino




Aportes de DPeliculasHDmega la pass es:dpeliculashdmega.org Aportes de CinemaniaHD la pass es:cinemaniahdd.com Aportes recientes:cinemaniahdd.net
Guardado en : Drama , Historia , Música

Películas relacionadas

descargar Bob Marley: One Love (2024) AMZN WEB-DL 1080p Latino WEBDL 1080p gratis, Bob Marley: One Love (2024) AMZN WEB-DL 1080p Latino WEBDL mega 1 link, Bob Marley: One Love (2024) AMZN WEB-DL 1080p Latino WEBDL pelicula completa, descargar Bob Marley: One Love (2024) AMZN WEB-DL 1080p Latino WEBDL gratis en mega.

Bob Marley: One Love (2024) AMZN WEB-DL 1080p Latino pelicula full hd, Bob Marley: One Love (2024) AMZN WEB-DL 1080p Latino mega latino, Bob Marley: One Love (2024) AMZN WEB-DL 1080p Latino 4k latino, Bob Marley: One Love (2024) AMZN WEB-DL 1080p Latino pelicula completa, Bob Marley: One Love (2024) AMZN WEB-DL 1080p Latino descargar gratis, descargar Bob Marley: One Love (2024) AMZN WEB-DL 1080p Latino pelicula latino, Bob Marley: One Love (2024) AMZN WEB-DL 1080p Latino 1 link mega, Bob Marley: One Love (2024) AMZN WEB-DL 1080p Latino 1 link google drive, Bob Marley: One Love (2024) AMZN WEB-DL 1080p Latino hd 1080p latino.
Comentarios 0