×

¿Problemas para descargar con Mozilla, EDGE? Deshabilita la opción "Abrir vinculos en una pestaña nueva" tal como lo muestra ésta imagen.

Bob Esponja: Al rescate (2020) 4K UHD HDR WEB Latino

701 vistas

Información de Bob Esponja: Al rescate (2020) 4K UHD HDR WEB Latino

Datos de la película

  • Calidad: WEBDL
  • Audio: Español Latino E-AC3 5.1 Netflix - Ingles E-AC3 5.1 Netflix
  • Subtitulos: Español Latino SRT - Ingles SRT
  • Resolución: 3840x2160p
  • Formato: MKV
  • Codec: HEVC
  • Encoder: Melkor
  • Mediainfo: Clic para Mostrar Datos Ver
  • Bob Esponja Al rescate (2020) UHD HDR WEB Latino-CMHDD.mkv
    Format                      : Matroska
    Format version              : Version 4
    File size                   : 10.3 GiB
    Duration                    : 1 h 35 min
    Overall bit rate            : 15.4 Mb/s
    Movie name                  : The SpongeBob - Movie Sponge on the Run (2020) CinemaniaHDD.Net
    Encoded date                : UTC 2020-11-06 00:04:59
    Writing application         : mkvmerge v51.0.0 ('I Wish') 64-bit
    Writing library             : libebml v1.4.0 + libmatroska v1.6.2
    Attachments                 : CINEMANIAHD.png

    Video
    ID                          : 1
    Format                      : HEVC
    Format/Info                 : High Efficiency Video Coding
    Format profile              : Main 10@L5@Main
    HDR format                  : SMPTE ST 2086, HDR10 compatible
    Codec ID                    : V_MPEGH/ISO/HEVC
    Duration                    : 1 h 31 min
    Bit rate                    : 14.6 Mb/s
    Width                       : 3 840 pixels
    Height                      : 2 160 pixels
    Display aspect ratio        : 16:9
    Frame rate mode             : Constant
    Frame rate                  : 23.976 (24000/1001) FPS
    Color space                 : YUV
    Chroma subsampling          : 4:2:0 (Type 2)
    Bit depth                   : 10 bits
    Bits/(Pixel*Frame)          : 0.074
    Stream size                 : 9.35 GiB (91%)
    Title                       : Web 2160p HDR [CinemaniaHDD]
    Default                     : Yes
    Forced                      : No
    Color range                 : Limited
    Color primaries             : BT.2020
    Transfer characteristics    : PQ
    Matrix coefficients         : BT.2020 non-constant
    Mastering display color pri : Display P3
    Mastering display luminance : min: 0.0001 cd/m2, max: 1000 cd/m2
    Maximum Content Light Level : 994 cd/m2
    Maximum Frame-Average Light : 180 cd/m2

    Audio #1
    ID                          : 2
    Format                      : E-AC-3
    Format/Info                 : Enhanced AC-3
    Commercial name             : Dolby Digital Plus
    Codec ID                    : A_EAC3
    Duration                    : 1 h 35 min
    Bit rate mode               : Constant
    Bit rate                    : 640 kb/s
    Channel(s)                  : 6 channels
    Channel layout              : L R C LFE Ls Rs
    Sampling rate               : 48.0 kHz
    Frame rate                  : 31.250 FPS (1536 SPF)
    Compression mode            : Lossy
    Stream size                 : 437 MiB (4%)
    Title                       : Español Latino [CinemaniaHDD]
    Language                    : Spanish
    Service kind                : Complete Main
    Default                     : Yes
    Forced                      : No

    Audio #2
    ID                          : 3
    Format                      : E-AC-3 JOC
    Format/Info                 : Enhanced AC-3 with Joint Object Coding
    Commercial name             : Dolby Digital Plus with Dolby Atmos
    Codec ID                    : A_EAC3
    Duration                    : 1 h 35 min
    Bit rate mode               : Constant
    Bit rate                    : 768 kb/s
    Channel(s)                  : 6 channels
    Channel layout              : L R C LFE Ls Rs
    Sampling rate               : 48.0 kHz
    Frame rate                  : 31.250 FPS (1536 SPF)
    Compression mode            : Lossy
    Stream size                 : 524 MiB (5%)
    Title                       : Ingles [CinemaniaHDD]
    Language                    : English
    Service kind                : Complete Main
    Default                     : No
    Forced                      : No
    Complexity index            : 16
    Number of dynamic objects   : 15
    Bed channel count           : 1 channel
    Bed channel configuration   : LFE

    Text #1
    ID                          : 4
    Format                      : UTF-8
    Codec ID                    : S_TEXT/UTF8
    Codec ID/Info               : UTF-8 Plain Text
    Duration                    : 1 h 30 min
    Bit rate                    : 2 b/s
    Count of elements           : 41
    Stream size                 : 1.39 KiB (0%)
    Title                       : Forzados-SRT [CinemaniaHDD]
    Language                    : Spanish
    Default                     : Yes
    Forced                      : No

    Text #2
    ID                          : 5
    Format                      : UTF-8
    Codec ID                    : S_TEXT/UTF8
    Codec ID/Info               : UTF-8 Plain Text
    Duration                    : 1 h 30 min
    Bit rate                    : 60 b/s
    Count of elements           : 1234
    Stream size                 : 40.3 KiB (0%)
    Title                       : Español-SRT [CinemaniaHDD]
    Language                    : Spanish
    Default                     : No
    Forced                      : No

    Text #3
    ID                          : 6
    Format                      : UTF-8
    Codec ID                    : S_TEXT/UTF8
    Codec ID/Info               : UTF-8 Plain Text
    Duration                    : 1 h 29 min
    Bit rate                    : 72 b/s
    Count of elements           : 1664
    Stream size                 : 47.7 KiB (0%)
    Title                       : Ingles-SRT [CinemaniaHDD]
    Language                    : English
    Default                     : No
    Forced                      : No

  • Peso: 10.3 GiB

Sinopsis

Descargar Bob Esponja: Al rescate (2020) 4K UHD HDR WEB Latino. Los amigos son lo más importante para Bob Esponja, por lo que no dudará en salir de la comodidad de su hogar en Fondo de Bikini, junto con Patricio, para adentrarse en un mundo desconocido, arriesgando sus vidas, para salvar a su amigo de la infancia, Gary, de las garras del rey Poseidón que le ha secuestrado en la Ciudad Perdida de la Atlantida. ¿Serán capaces de lograrlo?

Ficha técnica

Video trailer de la película

Enlaces de descarga

Rip de Bluray

Descargar Bob Esponja: Al rescate (2020) 4K UHD HDR WEB Latino




Aportes de DPeliculasHDmega la pass es:dpeliculashdmega.org Aportes de CinemaniaHD la pass es:cinemaniahdd.com

Películas relacionadas

  • Mi amigo el dragón (2016) Full HD 1080p Latino

    Mi amigo el dragón (2016) Full HD 1080p Latino

    2016
    Mi amigo el dragón (2016) Full HD 1080p Latino

    1h 43m 2016

    Descargar Mi amigo el dragón (2016) Full HD 1080p Latino. Durante años el Sr. Meacham, un viejo tallador...

    Director: Joe Nolan

    Género: Aventura

    Actores: William J. Rawbone

  • Mi amigo el dragón (2016) REMUX 1080p Latino

    Mi amigo el dragón (2016) REMUX 1080p Latino

    2016
    Mi amigo el dragón (2016) REMUX 1080p Latino

    1h 43m 2016

    Descargar Mi amigo el dragón (2016) REMUX 1080p Latino. Durante años el Sr. Meacham, un viejo tallador...

    Director: Joe Nolan

    Género: Aventura

    Actores: William J. Rawbone

descargar Bob Esponja: Al rescate (2020) 4K UHD HDR WEB Latino WEBDL 1080p gratis, Bob Esponja: Al rescate (2020) 4K UHD HDR WEB Latino WEBDL mega 1 link, Bob Esponja: Al rescate (2020) 4K UHD HDR WEB Latino WEBDL pelicula completa, descargar Bob Esponja: Al rescate (2020) 4K UHD HDR WEB Latino WEBDL gratis en mega.

Bob Esponja: Al rescate (2020) 4K UHD HDR WEB Latino pelicula full hd, Bob Esponja: Al rescate (2020) 4K UHD HDR WEB Latino mega latino, Bob Esponja: Al rescate (2020) 4K UHD HDR WEB Latino 4k latino, Bob Esponja: Al rescate (2020) 4K UHD HDR WEB Latino pelicula completa, Bob Esponja: Al rescate (2020) 4K UHD HDR WEB Latino descargar gratis, descargar Bob Esponja: Al rescate (2020) 4K UHD HDR WEB Latino pelicula latino, Bob Esponja: Al rescate (2020) 4K UHD HDR WEB Latino 1 link mega, Bob Esponja: Al rescate (2020) 4K UHD HDR WEB Latino 1 link google drive, Bob Esponja: Al rescate (2020) 4K UHD HDR WEB Latino hd 1080p latino.
Comentarios 0