×

¿Problemas para descargar con Mozilla, EDGE? Deshabilita la opción "Abrir vinculos en una pestaña nueva" tal como lo muestra ésta imagen.

Los hermanos caradura 2000 (1998) REMUX 1080p Latino-CMHDD

43 vistas

Información de Los hermanos caradura 2000 (1998) REMUX 1080p Latino-CMHDD

Datos de la película

  • Calidad: Full 1080p
  • Audio: Español Latino DTS 2.0 BLURAY - Ingles DTS 5.1 BLURAY
  • Subtitulos: Español Latino PGS - Ingles PGS
  • Resolución: 1920x1080p
  • Formato: MKV
  • Codec: H.264
  • Encoder: CinefiloCool
  • Mediainfo: Clic para Mostrar Datos Ver
  • Blues.Brothers.2000.1998.Bluray.REMUX.1080p.AVC.Latino-CC@CMHDD.mkv
    Format                      : Matroska
    Format version              : Version 4
    File size                   : 29.4 GiB
    Duration                    : 2 h 3 min
    Overall bit rate mode       : Variable
    Overall bit rate            : 34.0 Mb/s
    Movie name                  : Blues Brothers 2000 (1998) CinemaniaHDD.Net
    Encoded date                : UTC 2024-03-17 22:34:56
    Writing application         : mkvmerge v56.1.0 ('My Friend') 64-bit
    Writing library             : libebml v1.4.2 + libmatroska v1.6.4
    Cover                       : Yes
    Attachments                 : cover.jpg / CINEMANIAHD.png

    Video
    ID                          : 1
    ID in the original source m : 4113 (0x1011)
    Format                      : AVC
    Format/Info                 : Advanced Video Codec
    Format profile              : High@L4.1
    Format settings             : CABAC / 4 Ref Frames
    Format settings, CABAC      : Yes
    Format settings, Reference  : 4 frames
    Codec ID                    : V_MPEG4/ISO/AVC
    Duration                    : 2 h 3 min
    Bit rate mode               : Variable
    Bit rate                    : 31.0 Mb/s
    Maximum bit rate            : 34.0 Mb/s
    Width                       : 1 920 pixels
    Height                      : 1 080 pixels
    Display aspect ratio        : 16:9
    Frame rate mode             : Constant
    Frame rate                  : 23.976 (24000/1001) FPS
    Color space                 : YUV
    Chroma subsampling          : 4:2:0
    Bit depth                   : 8 bits
    Scan type                   : Progressive
    Bits/(Pixel*Frame)          : 0.623
    Stream size                 : 26.7 GiB (91%)
    Title                       : REMUX HD1080p [CinemaniaHDD]
    Default                     : Yes
    Forced                      : Yes
    Color range                 : Limited
    Color primaries             : BT.709
    Transfer characteristics    : BT.709
    Matrix coefficients         : BT.709
    Original source medium      : Blu-ray

    Audio #1
    ID                          : 2
    ID in the original source m : 4359 (0x1107)
    Format                      : DTS
    Format/Info                 : Digital Theater Systems
    Codec ID                    : A_DTS
    Duration                    : 2 h 3 min
    Bit rate mode               : Constant
    Bit rate                    : 384 kb/s
    Channel(s)                  : 2 channels
    Channel layout              : Lt Rt
    Sampling rate               : 48.0 kHz
    Frame rate                  : 93.750 FPS (512 SPF)
    Bit depth                   : 24 bits
    Compression mode            : Lossy
    Stream size                 : 339 MiB (1%)
    Title                       : Español Latino [CinemaniaHDD]
    Language                    : Spanish
    Default                     : Yes
    Forced                      : Yes
    Original source medium      : Blu-ray

    Audio #2
    ID                          : 3
    ID in the original source m : 4353 (0x1101)
    Format                      : DTS XLL
    Format/Info                 : Digital Theater Systems
    Commercial name             : DTS-HD Master Audio
    Codec ID                    : A_DTS
    Duration                    : 2 h 3 min
    Bit rate mode               : Variable
    Bit rate                    : 2 624 kb/s
    Channel(s)                  : 6 channels
    Channel layout              : C L R Ls Rs LFE
    Sampling rate               : 48.0 kHz
    Frame rate                  : 93.750 FPS (512 SPF)
    Bit depth                   : 24 bits
    Compression mode            : Lossless
    Stream size                 : 2.26 GiB (8%)
    Title                       : Ingles [CinemaniaHDD]
    Language                    : English
    Default                     : No
    Forced                      : No
    Original source medium      : Blu-ray

    Text #1
    ID                          : 4
    ID in the original source m : 4634 (0x121A)
    Format                      : PGS
    Muxing mode                 : zlib
    Codec ID                    : S_HDMV/PGS
    Codec ID/Info               : Picture based subtitle format used on BDs/HD-DVDs
    Duration                    : 1 h 55 min
    Bit rate                    : 725 b/s
    Count of elements           : 64
    Stream size                 : 615 KiB (0%)
    Title                       : Forzados-PGS [CinemaniaHDD]
    Language                    : Spanish
    Default                     : No
    Forced                      : No
    Original source medium      : Blu-ray

    Text #2
    ID                          : 5
    ID in the original source m : 4615 (0x1207)
    Format                      : PGS
    Muxing mode                 : zlib
    Codec ID                    : S_HDMV/PGS
    Codec ID/Info               : Picture based subtitle format used on BDs/HD-DVDs
    Duration                    : 2 h 1 min
    Bit rate                    : 19.1 kb/s
    Count of elements           : 1725
    Stream size                 : 16.7 MiB (0%)
    Title                       : Español-PGS [CinemaniaHDD]
    Language                    : Spanish
    Default                     : No
    Forced                      : No
    Original source medium      : Blu-ray

    Text #3
    ID                          : 6
    ID in the original source m : 4609 (0x1201)
    Format                      : PGS
    Muxing mode                 : zlib
    Codec ID                    : S_HDMV/PGS
    Codec ID/Info               : Picture based subtitle format used on BDs/HD-DVDs
    Duration                    : 2 h 2 min
    Bit rate                    : 35.1 kb/s
    Count of elements           : 2779
    Stream size                 : 30.8 MiB (0%)
    Title                       : Ingles [CinemaniaHDD]
    Language                    : English
    Default                     : No
    Forced                      : No
    Original source medium      : Blu-ray

    Text #4
    ID                          : 7
    Format                      : UTF-8
    Codec ID                    : S_TEXT/UTF8
    Codec ID/Info               : UTF-8 Plain Text
    Duration                    : 2 h 2 min
    Bit rate                    : 21 b/s
    Count of elements           : 480
    Stream size                 : 19.5 KiB (0%)
    Title                       : Forzados-SRT [CinemaniaHDD]
    Language                    : Spanish
    Default                     : Yes
    Forced                      : Yes

    Text #5
    ID                          : 8
    Format                      : UTF-8
    Codec ID                    : S_TEXT/UTF8
    Codec ID/Info               : UTF-8 Plain Text
    Duration                    : 1 h 58 min
    Bit rate                    : 44 b/s
    Count of elements           : 1161
    Stream size                 : 39.1 KiB (0%)
    Title                       : Español-SRT [CinemaniaHDD]
    Language                    : Spanish
    Default                     : No
    Forced                      : No

    Menu
    00:00:00.000                : Chapter 01
    00:03:47.268                : Chapter 02
    00:06:27.512                : Chapter 03
    00:09:32.530                : Chapter 04
    00:12:39.258                : Chapter 05
    00:16:41.208                : Chapter 06
    00:19:25.372                : Chapter 07
    00:21:58.442                : Chapter 08
    00:23:32.327                : Chapter 09
    00:29:11.124                : Chapter 10
    00:31:12.370                : Chapter 11
    00:35:43.516                : Chapter 12
    00:38:13.874                : Chapter 13
    00:41:35.951                : Chapter 14
    00:42:41.600                : Chapter 15
    00:44:17.321                : Chapter 16
    00:48:26.987                : Chapter 17
    00:51:06.480                : Chapter 18
    00:54:09.663                : Chapter 19
    00:58:29.047                : Chapter 20
    01:01:40.321                : Chapter 21
    01:03:53.162                : Chapter 22
    01:06:52.341                : Chapter 23
    01:12:16.081                : Chapter 24
    01:16:11.149                : Chapter 25
    01:17:56.004                : Chapter 26
    01:19:49.868                : Chapter 27
    01:22:26.483                : Chapter 28
    01:25:58.069                : Chapter 29
    01:28:57.957                : Chapter 30
    01:32:17.490                : Chapter 31
    01:34:41.425                : Chapter 32
    01:38:41.707                : Chapter 33
    01:39:27.086                : Chapter 34
    01:45:36.621                : Chapter 35
    01:50:05.348                : Chapter 36
    01:51:37.357                : Chapter 37
    01:54:20.979                : Chapter 38
    01:56:37.073                : Chapter 39
    02:01:34.829                : Chapter 40

  • Peso: 29.4 GiB

Sinopsis

Descargar Los hermanos caradura 2000 (1998) REMUX 1080p Latino-CMHDD. Elwood Blues, tras pasar 18 años en la cárcel por los destrozos que cometieron él y su hermano Jake, es puesto en libertad. Su madre le propondrá hacerse cargo de un niño de diez años con problemas de conducta. En compañía del chico empieza a buscar a un sustituto de su hermano con el que poder resucitar a los Blues Brothers.

Ficha técnica

Video trailer de la película

Enlaces de descarga

Rip de Bluray

Descargar Los hermanos caradura 2000 (1998) REMUX 1080p Latino-CMHDD


Aportes de DPeliculasHDmega la pass es:dpeliculashdmega.org Aportes de CinemaniaHD la pass es:cinemaniahdd.com Aportes recientes:cinemaniahdd.net
Guardado en : Acción , Comedia , Crimen , Música , Remux

Películas relacionadas

  • Chucky (2023) Temporada 3 WEB-DL 1080p Latino

    Chucky (2023) Temporada 3 WEB-DL 1080p Latino

    2021
    Chucky (2023) Temporada 3 WEB-DL 1080p Latino

    0h 42m 2021

    El infame Chucky se abre paso a cuchilladas hacia la televisión en una nueva y mortífera serie escrita...

    Director: Nick Antosca

    Género: Crimen

    Actores: Zackary Arthur

  • Good Burger 2 (2023) HD 1080p Latino

    Good Burger 2 (2023) HD 1080p Latino

    2023
    Good Burger 2 (2023) HD 1080p Latino

    1h 31m 2023

    Descargar Good Burger 2 (2023) HD 1080p Latino. Después de que su último invento falla, Ed le da la...

    Director: Ross Novie

    Género: Comedia

    Actores: Zoe Saldana

  • Good Burger 2 (2023) PLACEBO Full HD 1080p Latino

    Good Burger 2 (2023) PLACEBO Full HD 1080p Latino

    2023
    Good Burger 2 (2023) PLACEBO Full HD 1080p Latino

    1h 31m 2023

    Descargar Good Burger 2 (2023) PLACEBO Full HD 1080p Latino. Después de que su último invento falla,...

    Director: Ross Novie

    Género: Comedia

    Actores: Zoe Saldana

  • Good Burger 2 (2023) REMUX 1080p Latino

    Good Burger 2 (2023) REMUX 1080p Latino

    2023
    Good Burger 2 (2023) REMUX 1080p Latino

    1h 31m 2023

    Descargar Good Burger 2 (2023) REMUX 1080p Latino. Después de que su último invento falla, Ed le da...

    Director: Ross Novie

    Género: Comedia

    Actores: Zoe Saldana

descargar Los hermanos caradura 2000 (1998) REMUX 1080p Latino-CMHDD Full 1080p 1080p gratis, Los hermanos caradura 2000 (1998) REMUX 1080p Latino-CMHDD Full 1080p mega 1 link, Los hermanos caradura 2000 (1998) REMUX 1080p Latino-CMHDD Full 1080p pelicula completa, descargar Los hermanos caradura 2000 (1998) REMUX 1080p Latino-CMHDD Full 1080p gratis en mega.

Los hermanos caradura 2000 (1998) REMUX 1080p Latino-CMHDD pelicula full hd, Los hermanos caradura 2000 (1998) REMUX 1080p Latino-CMHDD mega latino, Los hermanos caradura 2000 (1998) REMUX 1080p Latino-CMHDD 4k latino, Los hermanos caradura 2000 (1998) REMUX 1080p Latino-CMHDD pelicula completa, Los hermanos caradura 2000 (1998) REMUX 1080p Latino-CMHDD descargar gratis, descargar Los hermanos caradura 2000 (1998) REMUX 1080p Latino-CMHDD pelicula latino, Los hermanos caradura 2000 (1998) REMUX 1080p Latino-CMHDD 1 link mega, Los hermanos caradura 2000 (1998) REMUX 1080p Latino-CMHDD 1 link google drive, Los hermanos caradura 2000 (1998) REMUX 1080p Latino-CMHDD hd 1080p latino.
Comentarios 0