×

¿Problemas para descargar con Mozilla, EDGE? Deshabilita la opción "Abrir vinculos en una pestaña nueva" tal como lo muestra ésta imagen.

Los hermanos caradura 2000 (1998) Full HD 1080p Latino-CMHDD

51 vistas

Información de Los hermanos caradura 2000 (1998) Full HD 1080p Latino-CMHDD

Datos de la película

  • Calidad: Full 1080p
  • Audio: Español Latino AC3 2.0 BLURAY - Ingles DTS 5.1 BLURAY
  • Subtitulos: Español Latino PGS - Ingles PGS
  • Resolución: 1920x1080p
  • Formato: MKV
  • Codec: H.264
  • Encoder: CinefiloCool
  • Mediainfo: Clic para Mostrar Datos Ver
  • Blues.Brothers.2000.1998.Bluray.FullHD.1080p.x264.Latino-CC@CMHDD.mkv
    Format                      : Matroska
    Format version              : Version 4
    File size                   : 7.79 GiB
    Duration                    : 2 h 3 min
    Overall bit rate            : 9 027 kb/s
    Movie name                  : Blues Brothers 2000 (1998) CinemaniaHDD.Net
    Encoded date                : UTC 2024-03-19 04:22:13
    Writing application         : mkvmerge v56.1.0 ('My Friend') 64-bit
    Writing library             : libebml v1.4.2 + libmatroska v1.6.4
    Cover                       : Yes
    Attachments                 : cover.jpg / CINEMANIAHD.png

    Video
    ID                          : 1
    Format                      : AVC
    Format/Info                 : Advanced Video Codec
    Format profile              : High@L4.1
    Format settings             : CABAC / 4 Ref Frames
    Format settings, CABAC      : Yes
    Format settings, Reference  : 4 frames
    Codec ID                    : V_MPEG4/ISO/AVC
    Duration                    : 2 h 3 min
    Bit rate                    : 7 243 kb/s
    Width                       : 1 920 pixels
    Height                      : 1 080 pixels
    Display aspect ratio        : 16:9
    Frame rate mode             : Constant
    Frame rate                  : 23.976 (24000/1001) FPS
    Color space                 : YUV
    Chroma subsampling          : 4:2:0
    Bit depth                   : 8 bits
    Scan type                   : Progressive
    Bits/(Pixel*Frame)          : 0.146
    Stream size                 : 6.25 GiB (80%)
    Title                       : Full HD1080p [CinemaniaHDD]
    Writing library             : x264 core 163 r3059 b684ebe0
    Encoding settings           : cabac=1 / ref=4 / deblock=1:0:0 / analyse=0x3:0x133 / me=tesa / subme=11 / psy=1 / psy_rd=1.00:0.00 / mixed_ref=1 / me_range=24 / chroma_me=1 / trellis=2 / 8x8dct=1 / cqm=0 / deadzone=21,11 / fast_pskip=0 / chroma_qp_offset=-2 / threads=24 / lookahead_threads=6 / sliced_threads=0 / nr=0 / decimate=1 / interlaced=0 / bluray_compat=0 / constrained_intra=0 / bframes=16 / b_pyramid=2 / b_adapt=2 / b_bias=0 / direct=3 / weightb=1 / open_gop=0 / weightp=2 / keyint=240 / keyint_min=24 / scenecut=40 / intra_refresh=0 / rc_lookahead=60 / rc=crf / mbtree=1 / crf=20.0 / qcomp=0.60 / qpmin=0 / qpmax=69 / qpstep=4 / vbv_maxrate=62500 / vbv_bufsize=78125 / crf_max=0.0 / nal_hrd=none / filler=0 / ip_ratio=1.40 / aq=1:1.00
    Default                     : Yes
    Forced                      : Yes
    Color range                 : Limited
    Color primaries             : BT.709
    Transfer characteristics    : BT.709
    Matrix coefficients         : BT.709

    Audio #1
    ID                          : 2
    Format                      : AC-3
    Format/Info                 : Audio Coding 3
    Commercial name             : Dolby Digital
    Codec ID                    : A_AC3
    Duration                    : 2 h 3 min
    Bit rate mode               : Constant
    Bit rate                    : 256 kb/s
    Channel(s)                  : 2 channels
    Channel layout              : L R
    Sampling rate               : 48.0 kHz
    Frame rate                  : 31.250 FPS (1536 SPF)
    Compression mode            : Lossy
    Stream size                 : 226 MiB (3%)
    Title                       : Español Latino [CinemaniaHDD]
    Language                    : Spanish
    Service kind                : Complete Main
    Default                     : Yes
    Forced                      : Yes

    Audio #2
    ID                          : 3
    Format                      : DTS
    Format/Info                 : Digital Theater Systems
    Codec ID                    : A_DTS
    Duration                    : 2 h 3 min
    Bit rate mode               : Constant
    Bit rate                    : 1 509 kb/s
    Channel(s)                  : 6 channels
    Channel layout              : C L R Ls Rs LFE
    Sampling rate               : 48.0 kHz
    Frame rate                  : 93.750 FPS (512 SPF)
    Bit depth                   : 24 bits
    Compression mode            : Lossy
    Stream size                 : 1.30 GiB (17%)
    Title                       : Ingles [CinemaniaHDD]
    Language                    : English
    Default                     : No
    Forced                      : No

    Text #1
    ID                          : 4
    ID in the original source m : 4634 (0x121A)
    Format                      : PGS
    Muxing mode                 : zlib
    Codec ID                    : S_HDMV/PGS
    Codec ID/Info               : Picture based subtitle format used on BDs/HD-DVDs
    Duration                    : 1 h 55 min
    Bit rate                    : 725 b/s
    Count of elements           : 64
    Stream size                 : 615 KiB (0%)
    Title                       : Forzados-PGS [CinemaniaHDD]
    Language                    : Spanish
    Default                     : No
    Forced                      : No
    Original source medium      : Blu-ray

    Text #2
    ID                          : 5
    ID in the original source m : 4615 (0x1207)
    Format                      : PGS
    Muxing mode                 : zlib
    Codec ID                    : S_HDMV/PGS
    Codec ID/Info               : Picture based subtitle format used on BDs/HD-DVDs
    Duration                    : 2 h 1 min
    Bit rate                    : 19.1 kb/s
    Count of elements           : 1725
    Stream size                 : 16.7 MiB (0%)
    Title                       : Español-PGS [CinemaniaHDD]
    Language                    : Spanish
    Default                     : No
    Forced                      : No
    Original source medium      : Blu-ray

    Text #3
    ID                          : 6
    ID in the original source m : 4609 (0x1201)
    Format                      : PGS
    Muxing mode                 : zlib
    Codec ID                    : S_HDMV/PGS
    Codec ID/Info               : Picture based subtitle format used on BDs/HD-DVDs
    Duration                    : 2 h 2 min
    Bit rate                    : 35.1 kb/s
    Count of elements           : 2779
    Stream size                 : 30.8 MiB (0%)
    Title                       : Ingles [CinemaniaHDD]
    Language                    : English
    Default                     : No
    Forced                      : No
    Original source medium      : Blu-ray

    Text #4
    ID                          : 7
    Format                      : UTF-8
    Codec ID                    : S_TEXT/UTF8
    Codec ID/Info               : UTF-8 Plain Text
    Duration                    : 2 h 2 min
    Bit rate                    : 21 b/s
    Count of elements           : 480
    Stream size                 : 19.5 KiB (0%)
    Title                       : Forzados-SRT [CinemaniaHDD]
    Language                    : Spanish
    Default                     : Yes
    Forced                      : Yes

    Text #5
    ID                          : 8
    Format                      : UTF-8
    Codec ID                    : S_TEXT/UTF8
    Codec ID/Info               : UTF-8 Plain Text
    Duration                    : 1 h 58 min
    Bit rate                    : 44 b/s
    Count of elements           : 1161
    Stream size                 : 39.1 KiB (0%)
    Title                       : Español-SRT [CinemaniaHDD]
    Language                    : Spanish
    Default                     : No
    Forced                      : No

    Menu
    00:00:00.000                : Chapter 01
    00:03:47.268                : Chapter 02
    00:06:27.512                : Chapter 03
    00:09:32.530                : Chapter 04
    00:12:39.258                : Chapter 05
    00:16:41.208                : Chapter 06
    00:19:25.372                : Chapter 07
    00:21:58.442                : Chapter 08
    00:23:32.327                : Chapter 09
    00:29:11.124                : Chapter 10
    00:31:12.370                : Chapter 11
    00:35:43.516                : Chapter 12
    00:38:13.874                : Chapter 13
    00:41:35.951                : Chapter 14
    00:42:41.600                : Chapter 15
    00:44:17.321                : Chapter 16
    00:48:26.987                : Chapter 17
    00:51:06.480                : Chapter 18
    00:54:09.663                : Chapter 19
    00:58:29.047                : Chapter 20
    01:01:40.321                : Chapter 21
    01:03:53.162                : Chapter 22
    01:06:52.341                : Chapter 23
    01:12:16.081                : Chapter 24
    01:16:11.149                : Chapter 25
    01:17:56.004                : Chapter 26
    01:19:49.868                : Chapter 27
    01:22:26.483                : Chapter 28
    01:25:58.069                : Chapter 29
    01:28:57.957                : Chapter 30
    01:32:17.490                : Chapter 31
    01:34:41.425                : Chapter 32
    01:38:41.707                : Chapter 33
    01:39:27.086                : Chapter 34
    01:45:36.621                : Chapter 35
    01:50:05.348                : Chapter 36
    01:51:37.357                : Chapter 37
    01:54:20.979                : Chapter 38
    01:56:37.073                : Chapter 39
    02:01:34.829                : Chapter 40

  • Peso: 7.79 GiB

Sinopsis

Descargar Los hermanos caradura 2000 (1998) Full HD 1080p Latino-CMHDD. Elwood Blues, tras pasar 18 años en la cárcel por los destrozos que cometieron él y su hermano Jake, es puesto en libertad. Su madre le propondrá hacerse cargo de un niño de diez años con problemas de conducta. En compañía del chico empieza a buscar a un sustituto de su hermano con el que poder resucitar a los Blues Brothers.

Ficha técnica

Video trailer de la película

Enlaces de descarga

Rip de Bluray

Descargar Los hermanos caradura 2000 (1998) Full HD 1080p Latino-CMHDD




Aportes de DPeliculasHDmega la pass es:dpeliculashdmega.org Aportes de CinemaniaHD la pass es:cinemaniahdd.com Aportes recientes:cinemaniahdd.net

Películas relacionadas

  • Puppy Love (2023) AMZN 4K-HDR WEB-DL 2160p Latino

    Puppy Love (2023) AMZN 4K-HDR WEB-DL 2160p Latino

    2023
    Puppy Love (2023) AMZN 4K-HDR WEB-DL 2160p Latino

    1h 46m 2023

    Después de una desastrosa primera cita, Nicole, una joven desenfrenada, y Max, socialmente ansioso,...

    Director: Trevor Cunningham

    Género: 4K HDR

    Actores: Sarah Almonte Peguero

  • Puppy Love (2023) AMZN WEB-DL 1080p Latino

    Puppy Love (2023) AMZN WEB-DL 1080p Latino

    2023
    Puppy Love (2023) AMZN WEB-DL 1080p Latino

    1h 46m 2023

    Después de una desastrosa primera cita, Nicole, una joven desenfrenada, y Max, socialmente ansioso,...

    Director: Trevor Cunningham

    Género: Comedia

    Actores: Sarah Almonte Peguero

  • iZombie (2016) Temporada 02 Full HD 1080p Latino

    iZombie (2016) Temporada 02 Full HD 1080p Latino

    2015
    iZombie (2016) Temporada 02 Full HD 1080p Latino

    0h 42m 2015

    Descargar iZombie (2016) Temporada 02 Full HD 1080p Latino. Gira en torno a una estudiante de medicina...

    Director: Rob Thomas

    Género: Crimen

    Actores: Rose McIver

descargar Los hermanos caradura 2000 (1998) Full HD 1080p Latino-CMHDD Full 1080p 1080p gratis, Los hermanos caradura 2000 (1998) Full HD 1080p Latino-CMHDD Full 1080p mega 1 link, Los hermanos caradura 2000 (1998) Full HD 1080p Latino-CMHDD Full 1080p pelicula completa, descargar Los hermanos caradura 2000 (1998) Full HD 1080p Latino-CMHDD Full 1080p gratis en mega.

Los hermanos caradura 2000 (1998) Full HD 1080p Latino-CMHDD pelicula full hd, Los hermanos caradura 2000 (1998) Full HD 1080p Latino-CMHDD mega latino, Los hermanos caradura 2000 (1998) Full HD 1080p Latino-CMHDD 4k latino, Los hermanos caradura 2000 (1998) Full HD 1080p Latino-CMHDD pelicula completa, Los hermanos caradura 2000 (1998) Full HD 1080p Latino-CMHDD descargar gratis, descargar Los hermanos caradura 2000 (1998) Full HD 1080p Latino-CMHDD pelicula latino, Los hermanos caradura 2000 (1998) Full HD 1080p Latino-CMHDD 1 link mega, Los hermanos caradura 2000 (1998) Full HD 1080p Latino-CMHDD 1 link google drive, Los hermanos caradura 2000 (1998) Full HD 1080p Latino-CMHDD hd 1080p latino.
Comentarios 0