×

¿Problemas para descargar con Mozilla, EDGE? Deshabilita la opción "Abrir vinculos en una pestaña nueva" tal como lo muestra ésta imagen.

Blue Beetle (2023) WEB-DL 4K UHD HDR/DV Latino

264 vistas

Información de Blue Beetle (2023) WEB-DL 4K UHD HDR/DV Latino

Datos de la película

  • Calidad: WEBDL
  • Audio: Español Latino AC3 5.1 WEB-DL - Ingles AC3 5.1 WEB-DL
  • Subtitulos: Español Latino SRT- FORZADOS SRT
  • Resolución: 3840x1604p
  • Formato: MKV
  • Codec: HEVC
  • Encoder: Melkor
  • Mediainfo: Clic para Mostrar Datos Ver
  • Blue Beetle (2023) WEB UHD HDR-DV Latino.mkv
    Format                      : Matroska
    Format version              : Version 4
    File size                   : 23.2 GiB
    Duration                    : 2 h 7 min
    Overall bit rate            : 26.0 Mb/s
    Movie name                  : Blue Beetle (2023) CinemaniaHDD.Net
    Encoded date                : UTC 2023-09-19 01:59:17
    Writing application         : mkvmerge v56.1.0 ('My Friend') 64-bit
    Writing library             : libebml v1.4.2 + libmatroska v1.6.4
    Attachments                 : CINEMANIAHD.png / CINEMANIAHD.png
    Site                        : CinemaniaHDD.Net
    Uploader                    : Melkor

    Video
    ID                          : 1
    Format                      : HEVC
    Format/Info                 : High Efficiency Video Coding
    Format profile              : Main 10@L5@High
    HDR format                  : Dolby Vision, Version 1.0, dvhe.08.06, BL+RPU, HDR10 compatible / SMPTE ST 2094 App 4, Version 1, HDR10+ Profile B compatible
    Codec ID                    : V_MPEGH/ISO/HEVC
    Duration                    : 2 h 7 min
    Bit rate                    : 24.4 Mb/s
    Width                       : 3 840 pixels
    Height                      : 1 604 pixels
    Display aspect ratio        : 2.40:1
    Frame rate mode             : Constant
    Frame rate                  : 23.976 (24000/1001) FPS
    Color space                 : YUV
    Chroma subsampling          : 4:2:0 (Type 2)
    Bit depth                   : 10 bits
    Bits/(Pixel*Frame)          : 0.166
    Stream size                 : 21.8 GiB (94%)
    Title                       : Web 2160p HDR [CinemaniaHDD]
    Default                     : Yes
    Forced                      : No
    Color range                 : Limited
    Color primaries             : BT.2020
    Transfer characteristics    : PQ
    Matrix coefficients         : BT.2020 non-constant
    Mastering display color pri : BT.2020
    Mastering display luminance : min: 0.0050 cd/m2, max: 1000 cd/m2
    Maximum Content Light Level : 1236 cd/m2
    Maximum Frame-Average Light : 677 cd/m2

    Audio #1
    ID                          : 2
    Format                      : AC-3
    Format/Info                 : Audio Coding 3
    Commercial name             : Dolby Digital
    Codec ID                    : A_AC3
    Duration                    : 2 h 7 min
    Bit rate mode               : Constant
    Bit rate                    : 448 kb/s
    Channel(s)                  : 6 channels
    Channel layout              : L R C LFE Ls Rs
    Sampling rate               : 48.0 kHz
    Frame rate                  : 31.250 FPS (1536 SPF)
    Compression mode            : Lossy
    Delay relative to video     : 939 ms
    Stream size                 : 408 MiB (2%)
    Title                       : Español Latino AC3 [CinemaniaHDD]
    Language                    : Spanish
    Service kind                : Complete Main
    Default                     : Yes
    Forced                      : Yes

    Audio #2
    ID                          : 3
    Format                      : E-AC-3
    Format/Info                 : Enhanced AC-3
    Commercial name             : Dolby Digital Plus
    Codec ID                    : A_EAC3
    Duration                    : 2 h 7 min
    Bit rate mode               : Constant
    Bit rate                    : 384 kb/s
    Channel(s)                  : 6 channels
    Channel layout              : L R C LFE Ls Rs
    Sampling rate               : 48.0 kHz
    Frame rate                  : 31.250 FPS (1536 SPF)
    Compression mode            : Lossy
    Delay relative to video     : 939 ms
    Stream size                 : 350 MiB (1%)
    Title                       : Español Latino EAC3 [CinemaniaHDD]
    Language                    : Spanish
    Service kind                : Complete Main
    Default                     : No
    Forced                      : No

    Audio #3
    ID                          : 4
    Format                      : E-AC-3 JOC
    Format/Info                 : Enhanced AC-3 with Joint Object Coding
    Commercial name             : Dolby Digital Plus with Dolby Atmos
    Codec ID                    : A_EAC3
    Duration                    : 2 h 7 min
    Bit rate mode               : Constant
    Bit rate                    : 768 kb/s
    Channel(s)                  : 6 channels
    Channel layout              : L R C LFE Ls Rs
    Sampling rate               : 48.0 kHz
    Frame rate                  : 31.250 FPS (1536 SPF)
    Compression mode            : Lossy
    Stream size                 : 700 MiB (3%)
    Title                       : Ingles [CinemaniaHDD]
    Language                    : English
    Service kind                : Complete Main
    Default                     : No
    Forced                      : No
    Complexity index            : 16
    Number of dynamic objects   : 15
    Bed channel count           : 1 channel
    Bed channel configuration   : LFE

    Text #1
    ID                          : 5
    Format                      : UTF-8
    Codec ID                    : S_TEXT/UTF8
    Codec ID/Info               : UTF-8 Plain Text
    Duration                    : 1 h 51 min
    Bit rate                    : 1 b/s
    Count of elements           : 36
    Stream size                 : 1.00 KiB (0%)
    Title                       : Forzados-SRT [CinemaniaHDD]
    Language                    : Spanish
    Default                     : Yes
    Forced                      : Yes

    Text #2
    ID                          : 6
    Format                      : UTF-8
    Codec ID                    : S_TEXT/UTF8
    Codec ID/Info               : UTF-8 Plain Text
    Duration                    : 2 h 5 min
    Bit rate                    : 49 b/s
    Count of elements           : 1631
    Stream size                 : 45.2 KiB (0%)
    Title                       : Español-SRT [CinemaniaHDD]
    Language                    : Spanish
    Default                     : No
    Forced                      : No

    Text #3
    ID                          : 7
    Format                      : UTF-8
    Codec ID                    : S_TEXT/UTF8
    Codec ID/Info               : UTF-8 Plain Text
    Duration                    : 2 h 6 min
    Bit rate                    : 72 b/s
    Count of elements           : 2358
    Stream size                 : 67.6 KiB (0%)
    Title                       : Ingles-SRT [CinemaniaHDD]
    Language                    : English
    Default                     : No
    Forced                      : No

    Menu
    00:00:00.000                : Chapter 01
    00:10:11.861                : Chapter 02
    00:20:13.129                : Chapter 03
    00:29:29.477                : Chapter 04
    00:41:33.284                : Chapter 05
    00:52:33.236                : Chapter 06
    01:01:37.238                : Chapter 07
    01:12:07.744                : Chapter 08
    01:20:01.301                : Chapter 09
    01:30:55.121                : Chapter 10
    01:41:05.940                : Chapter 11
    01:50:24.541                : Chapter 12
    01:59:39.220                : Chapter 13

  • Peso: 23.2 GiB

Sinopsis

Descargar Blue Beetle (2023) WEB-DL 4K UHD HDR/DV Latino. Un adolescente mexicano encuentra un escarabajo alienígena que le proporciona una armadura superpoderosa.

Ficha técnica

Video trailer de la película

Enlaces de descarga

Rip de Bluray

Descargar Blue Beetle (2023) WEB-DL 4K UHD HDR/DV Latino




Aportes de DPeliculasHDmega la pass es:dpeliculashdmega.org Aportes de CinemaniaHD la pass es:cinemaniahdd.com Aportes recientes:cinemaniahdd.net

Películas relacionadas

  • Shōgun (2024)  Temporada 1 WEB-DL 4K UHD HDR Latino

    Shōgun (2024) Temporada 1 WEB-DL 4K UHD HDR Latino

    2024
    Shōgun (2024) Temporada 1 WEB-DL 4K UHD HDR Latino

    0h 0m 2024

    Descargar Shōgun (2024) Temporada 1 WEB-DL 4K UHD HDR Latino. En el Japón del siglo XVII, el náufrago...

    Director: Rachel Kondo

    Género: 4K HDR

    Actores: Tommy Bastow

  • Dune: Parte dos (2024) WEB-DL 4K UHD HDR Latino

    Dune: Parte dos (2024) WEB-DL 4K UHD HDR Latino

    2024
    Dune: Parte dos (2024) WEB-DL 4K UHD HDR Latino

    2h 47m 2024

    Descargar Dune: Parte dos (2024) WEB-DL 4K UHD HDR Latino. Sigue el viaje mítico de Paul Atreides mientras...

    Director: Vera Janisch

    Género: 4K HDR

    Actores: Zouhair Elakkari

  • Kung Fu Panda 4 (2024) WEB-DL 4K UHD HDR Latino

    Kung Fu Panda 4 (2024) WEB-DL 4K UHD HDR Latino

    2024
    Kung Fu Panda 4 (2024) WEB-DL 4K UHD HDR Latino

    1h 34m 2024

    Descargar Kung Fu Panda 4 (2024) WEB-DL 4K UHD HDR Latino. Po se prepara para ser el líder espiritual...

    Director: Stephanie Ma Stine

    Género: 4K HDR

    Actores: Viola Davis

  • Madame Web (2024) WEB-DL 4K UHD HDR Latino

    Madame Web (2024) WEB-DL 4K UHD HDR Latino

    2024
    Madame Web (2024) WEB-DL 4K UHD HDR Latino

    1h 56m 2024

    Descargar Madame Web (2024) WEB-DL 4K UHD HDR Latino. Una historia de origen de la clarividente conocida...

    Director: S.J. Clarkson

    Género: 4K HDR

    Actores: Zosia Mamet

  • Drive-Away Dolls (2024) WEB-DL 4K UHD HDR Latino

    Drive-Away Dolls (2024) WEB-DL 4K UHD HDR Latino

    2024
    Drive-Away Dolls (2024) WEB-DL 4K UHD HDR Latino

    1h 24m 2024

    Descargar Drive-Away Dolls (2024) WEB-DL 4K UHD HDR Latino.  Una chica fiestera viaja de Filadelfia...

    Director: Susan Ransom-Coyle

    Género: 4K HDR

    Actores: Savanna Ziegler

descargar Blue Beetle (2023) WEB-DL 4K UHD HDR/DV Latino WEBDL 1080p gratis, Blue Beetle (2023) WEB-DL 4K UHD HDR/DV Latino WEBDL mega 1 link, Blue Beetle (2023) WEB-DL 4K UHD HDR/DV Latino WEBDL pelicula completa, descargar Blue Beetle (2023) WEB-DL 4K UHD HDR/DV Latino WEBDL gratis en mega.

Blue Beetle (2023) WEB-DL 4K UHD HDR/DV Latino pelicula full hd, Blue Beetle (2023) WEB-DL 4K UHD HDR/DV Latino mega latino, Blue Beetle (2023) WEB-DL 4K UHD HDR/DV Latino 4k latino, Blue Beetle (2023) WEB-DL 4K UHD HDR/DV Latino pelicula completa, Blue Beetle (2023) WEB-DL 4K UHD HDR/DV Latino descargar gratis, descargar Blue Beetle (2023) WEB-DL 4K UHD HDR/DV Latino pelicula latino, Blue Beetle (2023) WEB-DL 4K UHD HDR/DV Latino 1 link mega, Blue Beetle (2023) WEB-DL 4K UHD HDR/DV Latino 1 link google drive, Blue Beetle (2023) WEB-DL 4K UHD HDR/DV Latino hd 1080p latino.
Comentarios 0