×

¿Problemas para descargar con Mozilla, EDGE? Deshabilita la opción "Abrir vinculos en una pestaña nueva" tal como lo muestra ésta imagen.

Blue Beetle (2023) REMUX 1080p Latino-CMHDD

145 vistas

Información de Blue Beetle (2023) REMUX 1080p Latino-CMHDD

Datos de la película

  • Calidad: Full 1080p
  • Audio: Se especifica abajo de la Sinopsis
  • Subtitulos: Español Latino PGS - Ingles PGS
  • Resolución: 1920x1080p
  • Formato: MKV
  • Codec: H.264
  • Encoder: CinefiloCool
  • Mediainfo: Clic para Mostrar Datos Ver
  • Blue.Beetle.2023.REMUX.1080p.Latino-CC@CMHDD.mkv
    Format                      : Matroska
    Format version              : Version 4
    File size                   : 24.5 GiB
    Duration                    : 2 h 7 min
    Overall bit rate mode       : Variable
    Overall bit rate            : 27.5 Mb/s
    Movie name                  : Blue Beetle (2023) CinemaniaHDD.Net
    Encoded date                : UTC 2023-10-26 20:38:12
    Writing application         : mkvmerge v56.1.0 ('My Friend') 64-bit
    Writing library             : libebml v1.4.2 + libmatroska v1.6.4
    Attachments                 : CINEMANIAHD.png

    Video
    ID                          : 1
    Format                      : AVC
    Format/Info                 : Advanced Video Codec
    Format profile              : High@L4.1
    Format settings             : CABAC / 2 Ref Frames
    Format settings, CABAC      : Yes
    Format settings, Reference  : 2 frames
    Codec ID                    : V_MPEG4/ISO/AVC
    Duration                    : 2 h 7 min
    Bit rate mode               : Variable
    Bit rate                    : 23.0 Mb/s
    Width                       : 1 920 pixels
    Height                      : 1 080 pixels
    Display aspect ratio        : 16:9
    Frame rate mode             : Constant
    Frame rate                  : 23.976 (24000/1001) FPS
    Color space                 : YUV
    Chroma subsampling          : 4:2:0
    Bit depth                   : 8 bits
    Scan type                   : Progressive
    Bits/(Pixel*Frame)          : 0.462
    Stream size                 : 20.4 GiB (83%)
    Title                       : REMUX HD1080p [CinemaniaHDD]
    Default                     : Yes
    Forced                      : Yes

    Audio #1
    ID                          : 2
    Format                      : E-AC-3
    Format/Info                 : Enhanced AC-3
    Commercial name             : Dolby Digital Plus
    Codec ID                    : A_EAC3
    Duration                    : 2 h 7 min
    Bit rate mode               : Constant
    Bit rate                    : 384 kb/s
    Channel(s)                  : 6 channels
    Channel layout              : L R C LFE Ls Rs
    Sampling rate               : 48.0 kHz
    Frame rate                  : 31.250 FPS (1536 SPF)
    Compression mode            : Lossy
    Stream size                 : 350 MiB (1%)
    Title                       : Español Latino DDP [CinemaniaHDD]
    Language                    : Spanish
    Service kind                : Complete Main
    Default                     : No
    Forced                      : No

    Audio #2
    ID                          : 3
    Format                      : MLP FBA 16-ch
    Format/Info                 : Meridian Lossless Packing FBA with 16-channel presentation
    Commercial name             : Dolby TrueHD with Dolby Atmos
    Codec ID                    : A_TRUEHD
    Duration                    : 2 h 7 min
    Bit rate mode               : Variable
    Bit rate                    : 2 981 kb/s
    Maximum bit rate            : 4 566 kb/s
    Channel(s)                  : 8 channels
    Channel layout              : L R C LFE Ls Rs Lb Rb
    Sampling rate               : 48.0 kHz
    Frame rate                  : 1 200.000 FPS (40 SPF)
    Compression mode            : Lossless
    Stream size                 : 2.65 GiB (11%)
    Title                       : Ingles THD[CinemaniaHDD]
    Language                    : English
    Default                     : No
    Forced                      : No
    Number of dynamic objects   : 11
    Bed channel count           : 1 channel
    Bed channel configuration   : LFE

    Audio #3
    ID                          : 4
    Format                      : AC-3
    Format/Info                 : Audio Coding 3
    Commercial name             : Dolby Digital
    Codec ID                    : A_AC3
    Duration                    : 2 h 7 min
    Bit rate mode               : Constant
    Bit rate                    : 640 kb/s
    Channel(s)                  : 6 channels
    Channel layout              : L R C LFE Ls Rs
    Sampling rate               : 48.0 kHz
    Frame rate                  : 31.250 FPS (1536 SPF)
    Compression mode            : Lossy
    Stream size                 : 583 MiB (2%)
    Title                       : Español Latino AC3 [CinemaniaHDD]
    Language                    : Spanish
    Service kind                : Complete Main
    Default                     : Yes
    Forced                      : Yes

    Audio #4
    ID                          : 5
    Format                      : AC-3
    Format/Info                 : Audio Coding 3
    Commercial name             : Dolby Digital
    Codec ID                    : A_AC3
    Duration                    : 2 h 7 min
    Bit rate mode               : Constant
    Bit rate                    : 448 kb/s
    Channel(s)                  : 6 channels
    Channel layout              : L R C LFE Ls Rs
    Sampling rate               : 48.0 kHz
    Frame rate                  : 31.250 FPS (1536 SPF)
    Compression mode            : Lossy
    Stream size                 : 408 MiB (2%)
    Title                       : Ingles AC3 [CinemaniaHDD]
    Language                    : English
    Service kind                : Complete Main
    Default                     : No
    Forced                      : No

    Text #1
    ID                          : 6
    Format                      : PGS
    Muxing mode                 : zlib
    Codec ID                    : S_HDMV/PGS
    Codec ID/Info               : Picture based subtitle format used on BDs/HD-DVDs
    Duration                    : 1 h 51 min
    Bit rate                    : 918 b/s
    Count of elements           : 74
    Stream size                 : 753 KiB (0%)
    Title                       : Forzados-PGS [CinemaniaHDD]
    Language                    : Spanish
    Default                     : No
    Forced                      : No

    Text #2
    ID                          : 7
    Format                      : PGS
    Muxing mode                 : zlib
    Codec ID                    : S_HDMV/PGS
    Codec ID/Info               : Picture based subtitle format used on BDs/HD-DVDs
    Duration                    : 2 h 5 min
    Bit rate                    : 28.9 kb/s
    Count of elements           : 3262
    Stream size                 : 26.1 MiB (0%)
    Title                       : Español-PGS [CinemaniaHDD]
    Language                    : Spanish
    Default                     : No
    Forced                      : No

    Text #3
    ID                          : 8
    Format                      : PGS
    Muxing mode                 : zlib
    Codec ID                    : S_HDMV/PGS
    Codec ID/Info               : Picture based subtitle format used on BDs/HD-DVDs
    Duration                    : 2 h 6 min
    Bit rate                    : 43.6 kb/s
    Count of elements           : 4790
    Stream size                 : 39.4 MiB (0%)
    Title                       : Ingles-PGS [CinemaniaHDD]
    Language                    : English
    Default                     : No
    Forced                      : No

    Text #4
    ID                          : 9
    Format                      : UTF-8
    Codec ID                    : S_TEXT/UTF8
    Codec ID/Info               : UTF-8 Plain Text
    Duration                    : 1 h 51 min
    Bit rate                    : 1 b/s
    Count of elements           : 36
    Stream size                 : 1.00 KiB (0%)
    Title                       : Forzados-SRT [CinemaniaHDD]
    Language                    : Spanish
    Default                     : Yes
    Forced                      : Yes

    Text #5
    ID                          : 10
    Format                      : UTF-8
    Codec ID                    : S_TEXT/UTF8
    Codec ID/Info               : UTF-8 Plain Text
    Duration                    : 2 h 5 min
    Bit rate                    : 49 b/s
    Count of elements           : 1631
    Stream size                 : 45.2 KiB (0%)
    Title                       : Español-SRT [CinemaniaHDD]
    Language                    : Spanish
    Default                     : No
    Forced                      : No

    Menu
    00:00:00.000                : Chapter 01
    00:10:10.234                : Chapter 02
    00:20:13.128                : Chapter 03
    00:29:29.476                : Chapter 04
    00:41:33.282                : Chapter 05
    00:52:33.233                : Chapter 06
    01:01:37.235                : Chapter 07
    01:12:07.740                : Chapter 08
    01:20:02.214                : Chapter 09
    01:30:55.450                : Chapter 10
    01:41:06.268                : Chapter 11
    01:50:24.534                : Chapter 12
    01:59:29.871                : Chapter 13

  • Peso: 24.5 GiB

Sinopsis

Descargar Blue Beetle (2023) REMUX 1080p Latino-CMHDD. Jaime Reyes, recién licenciado, regresa a casa lleno de aspiraciones para su futuro, pero descubre que su hogar no es exactamente como lo dejó. En su búsqueda por encontrar su propósito en el mundo, el destino interviene cuando Jaime se encuentra inesperadamente en posesión de una antigua reliquia de biotecnología alienígena: el Escarabajo. Cuando el escarabajo elige a Jaime como huésped simbiótico, éste recibe una increíble armadura con poderes extraordinarios e impredecibles que cambiarán para siempre su destino y le convertirán en el superhéroe Blue Beetle.

Audio Español Latino EAC3 5.1 WebDL + AC3 5.1 Bluray – Ingles TrueHD 7.1 + AC3 5.1  Bluray

Ficha técnica

Video trailer de la película

Enlaces de descarga

Rip de Bluray

Descargar Blue Beetle (2023) REMUX 1080p Latino-CMHDD




Aportes de DPeliculasHDmega la pass es:dpeliculashdmega.org Aportes de CinemaniaHD la pass es:cinemaniahdd.com Aportes recientes:cinemaniahdd.net
Guardado en : Acción , Aventura , Ciencia ficción , Remux

Películas relacionadas

descargar Blue Beetle (2023) REMUX 1080p Latino-CMHDD Full 1080p 1080p gratis, Blue Beetle (2023) REMUX 1080p Latino-CMHDD Full 1080p mega 1 link, Blue Beetle (2023) REMUX 1080p Latino-CMHDD Full 1080p pelicula completa, descargar Blue Beetle (2023) REMUX 1080p Latino-CMHDD Full 1080p gratis en mega.

Blue Beetle (2023) REMUX 1080p Latino-CMHDD pelicula full hd, Blue Beetle (2023) REMUX 1080p Latino-CMHDD mega latino, Blue Beetle (2023) REMUX 1080p Latino-CMHDD 4k latino, Blue Beetle (2023) REMUX 1080p Latino-CMHDD pelicula completa, Blue Beetle (2023) REMUX 1080p Latino-CMHDD descargar gratis, descargar Blue Beetle (2023) REMUX 1080p Latino-CMHDD pelicula latino, Blue Beetle (2023) REMUX 1080p Latino-CMHDD 1 link mega, Blue Beetle (2023) REMUX 1080p Latino-CMHDD 1 link google drive, Blue Beetle (2023) REMUX 1080p Latino-CMHDD hd 1080p latino.
Comentarios 0