×

¿Problemas para descargar con Mozilla, EDGE? Deshabilita la opción "Abrir vinculos en una pestaña nueva" tal como lo muestra ésta imagen.

Blue Beetle (2023) 1080p Latino-CMHDD

228 vistas

Información de Blue Beetle (2023) 1080p Latino-CMHDD

Datos de la película

  • Calidad: 1080p
  • Audio: Español Latino AC3 5.1 BLURAY - Ingles AC3 5.1 BLURAY
  • Subtitulos: Español Latino SRT - Ingles SRT
  • Resolución: 1920x804p
  • Formato: MKV
  • Codec: H.264
  • Encoder: CinefiloCool
  • Mediainfo: Clic para Mostrar Datos Ver
  • Blue.Beetle.2023.Bluray.1080p.Latino-CC@CMHDD.mkv
    Format                      : Matroska
    Format version              : Version 4
    File size                   : 4.07 GiB
    Duration                    : 2 h 7 min
    Overall bit rate            : 4 572 kb/s
    Movie name                  : Blue Beetle (2023) CinemaniaHDD.Net
    Encoded date                : UTC 2023-10-26 22:23:50
    Writing application         : mkvmerge v56.1.0 ('My Friend') 64-bit
    Writing library             : libebml v1.4.2 + libmatroska v1.6.4
    Attachments                 : CINEMANIAHD.png

    Video
    ID                          : 1
    Format                      : AVC
    Format/Info                 : Advanced Video Codec
    Format profile              : High@L4.1
    Format settings             : CABAC / 5 Ref Frames
    Format settings, CABAC      : Yes
    Format settings, Reference  : 5 frames
    Codec ID                    : V_MPEG4/ISO/AVC
    Duration                    : 2 h 7 min
    Bit rate                    : 3 500 kb/s
    Width                       : 1 920 pixels
    Height                      : 804 pixels
    Display aspect ratio        : 2.40:1
    Frame rate mode             : Constant
    Frame rate                  : 23.976 (24000/1001) FPS
    Color space                 : YUV
    Chroma subsampling          : 4:2:0
    Bit depth                   : 8 bits
    Scan type                   : Progressive
    Bits/(Pixel*Frame)          : 0.095
    Stream size                 : 3.10 GiB (76%)
    Title                       : HD1080p [CinemaniaHDD]
    Writing library             : x264 core 163 r3059 b684ebe0
    Encoding settings           : cabac=1 / ref=5 / deblock=1:-1:-1 / analyse=0x3:0x133 / me=umh / subme=9 / psy=1 / psy_rd=1.00:0.15 / mixed_ref=1 / me_range=16 / chroma_me=1 / trellis=2 / 8x8dct=1 / cqm=0 / deadzone=21,11 / fast_pskip=1 / chroma_qp_offset=-3 / threads=24 / lookahead_threads=2 / sliced_threads=0 / nr=0 / decimate=1 / interlaced=0 / bluray_compat=0 / constrained_intra=0 / bframes=3 / b_pyramid=2 / b_adapt=2 / b_bias=0 / direct=3 / weightb=1 / open_gop=0 / weightp=2 / keyint=240 / keyint_min=24 / scenecut=40 / intra_refresh=0 / rc_lookahead=60 / rc=abr / mbtree=1 / bitrate=3500 / ratetol=1.0 / qcomp=0.60 / qpmin=0 / qpmax=69 / qpstep=4 / vbv_maxrate=62500 / vbv_bufsize=78125 / nal_hrd=none / filler=0 / ip_ratio=1.40 / aq=1:1.00
    Default                     : Yes
    Forced                      : Yes
    Color range                 : Limited
    Color primaries             : BT.709
    Transfer characteristics    : BT.709
    Matrix coefficients         : BT.709

    Audio #1
    ID                          : 2
    Format                      : AC-3
    Format/Info                 : Audio Coding 3
    Commercial name             : Dolby Digital
    Codec ID                    : A_AC3
    Duration                    : 2 h 7 min
    Bit rate mode               : Constant
    Bit rate                    : 640 kb/s
    Channel(s)                  : 6 channels
    Channel layout              : L R C LFE Ls Rs
    Sampling rate               : 48.0 kHz
    Frame rate                  : 31.250 FPS (1536 SPF)
    Compression mode            : Lossy
    Stream size                 : 583 MiB (14%)
    Title                       : Español Latino [CinemaniaHDD]
    Language                    : Spanish
    Service kind                : Complete Main
    Default                     : Yes
    Forced                      : Yes

    Audio #2
    ID                          : 3
    Format                      : AC-3
    Format/Info                 : Audio Coding 3
    Commercial name             : Dolby Digital
    Codec ID                    : A_AC3
    Duration                    : 2 h 7 min
    Bit rate mode               : Constant
    Bit rate                    : 448 kb/s
    Channel(s)                  : 6 channels
    Channel layout              : L R C LFE Ls Rs
    Sampling rate               : 48.0 kHz
    Frame rate                  : 31.250 FPS (1536 SPF)
    Compression mode            : Lossy
    Stream size                 : 408 MiB (10%)
    Title                       : Ingles [CinemaniaHDD]
    Language                    : English
    Service kind                : Complete Main
    Default                     : No
    Forced                      : No

    Text #1
    ID                          : 4
    Format                      : UTF-8
    Codec ID                    : S_TEXT/UTF8
    Codec ID/Info               : UTF-8 Plain Text
    Duration                    : 1 h 51 min
    Bit rate                    : 1 b/s
    Count of elements           : 36
    Stream size                 : 1.00 KiB (0%)
    Title                       : Forzados-SRT [CinemaniaHDD]
    Language                    : Spanish
    Default                     : Yes
    Forced                      : Yes

    Text #2
    ID                          : 5
    Format                      : UTF-8
    Codec ID                    : S_TEXT/UTF8
    Codec ID/Info               : UTF-8 Plain Text
    Duration                    : 2 h 5 min
    Bit rate                    : 49 b/s
    Count of elements           : 1631
    Stream size                 : 45.2 KiB (0%)
    Title                       : Español-SRT [CinemaniaHDD]
    Language                    : Spanish
    Default                     : No
    Forced                      : No

    Text #3
    ID                          : 6
    Format                      : UTF-8
    Codec ID                    : S_TEXT/UTF8
    Codec ID/Info               : UTF-8 Plain Text
    Duration                    : 2 h 5 min
    Bit rate                    : 53 b/s
    Count of elements           : 1764
    Stream size                 : 49.2 KiB (0%)
    Title                       : Ingles-SRT [CinemaniaHDD]
    Language                    : English
    Default                     : No
    Forced                      : No

    Menu
    00:00:00.000                : Chapter 01
    00:10:10.234                : Chapter 02
    00:20:13.128                : Chapter 03
    00:29:29.476                : Chapter 04
    00:41:33.282                : Chapter 05
    00:52:33.233                : Chapter 06
    01:01:37.235                : Chapter 07
    01:12:07.740                : Chapter 08
    01:20:02.214                : Chapter 09
    01:30:55.450                : Chapter 10
    01:41:06.268                : Chapter 11
    01:50:24.534                : Chapter 12
    01:59:29.871                : Chapter 13

  • Peso: 4.07 GiB

Sinopsis

Descargar Blue Beetle (2023) 1080p Latino-CMHDD. Jaime Reyes, recién licenciado, regresa a casa lleno de aspiraciones para su futuro, pero descubre que su hogar no es exactamente como lo dejó. En su búsqueda por encontrar su propósito en el mundo, el destino interviene cuando Jaime se encuentra inesperadamente en posesión de una antigua reliquia de biotecnología alienígena: el Escarabajo. Cuando el escarabajo elige a Jaime como huésped simbiótico, éste recibe una increíble armadura con poderes extraordinarios e impredecibles que cambiarán para siempre su destino y le convertirán en el superhéroe Blue Beetle.

Ficha técnica

Video trailer de la película

Enlaces de descarga

Rip de Bluray

Descargar Blue Beetle (2023) 1080p Latino-CMHDD




Aportes de DPeliculasHDmega la pass es:dpeliculashdmega.org Aportes de CinemaniaHD la pass es:cinemaniahdd.com Aportes recientes:cinemaniahdd.net

Películas relacionadas

descargar Blue Beetle (2023) 1080p Latino-CMHDD 1080p 1080p gratis, Blue Beetle (2023) 1080p Latino-CMHDD 1080p mega 1 link, Blue Beetle (2023) 1080p Latino-CMHDD 1080p pelicula completa, descargar Blue Beetle (2023) 1080p Latino-CMHDD 1080p gratis en mega.

Blue Beetle (2023) 1080p Latino-CMHDD pelicula full hd, Blue Beetle (2023) 1080p Latino-CMHDD mega latino, Blue Beetle (2023) 1080p Latino-CMHDD 4k latino, Blue Beetle (2023) 1080p Latino-CMHDD pelicula completa, Blue Beetle (2023) 1080p Latino-CMHDD descargar gratis, descargar Blue Beetle (2023) 1080p Latino-CMHDD pelicula latino, Blue Beetle (2023) 1080p Latino-CMHDD 1 link mega, Blue Beetle (2023) 1080p Latino-CMHDD 1 link google drive, Blue Beetle (2023) 1080p Latino-CMHDD hd 1080p latino.
Comentarios 0