×

¿Problemas para descargar con Mozilla, EDGE? Deshabilita la opción "Abrir vinculos en una pestaña nueva" tal como lo muestra ésta imagen.

Blue Bayou (2021) HD 1080p Latino

110 vistas

Información de Blue Bayou (2021) HD 1080p Latino

Datos de la película

  • Calidad: 1080p
  • Audio: Español Latino AC3 5.1 BLURAY - Ingles AC3 5.1 BLURAY
  • Subtitulos: Español Latino SRT- FORZADOS SRT
  • Resolución: 1708x1036p
  • Formato: MKV
  • Codec: H.264
  • Encoder: Melkor
  • Mediainfo: Clic para Mostrar Datos Ver
  • Blue Bayou (2021) HD 1080p Latino.mkv
    Format                      : Matroska
    Format version              : Version 4
    File size                   : 3.68 GiB
    Duration                    : 1 h 57 min
    Overall bit rate            : 4 505 kb/s
    Movie name                  : Blue Bayou (2021) CinemaniaHDD.Net
    Encoded date                : UTC 2021-12-14 03:25:22
    Writing application         : mkvmerge v56.1.0 ('My Friend') 64-bit
    Writing library             : libebml v1.4.2 + libmatroska v1.6.4
    Attachments                 : CINEMANIAHD.png

    Video
    ID                          : 1
    Format                      : AVC
    Format/Info                 : Advanced Video Codec
    Format profile              : High@L4.1
    Format settings             : CABAC / 4 Ref Frames
    Format settings, CABAC      : Yes
    Format settings, Reference  : 4 frames
    Codec ID                    : V_MPEG4/ISO/AVC
    Duration                    : 1 h 57 min
    Bit rate                    : 3 500 kb/s
    Width                       : 1 708 pixels
    Height                      : 1 036 pixels
    Display aspect ratio        : 16:10
    Frame rate mode             : Constant
    Frame rate                  : 23.976 (24000/1001) FPS
    Color space                 : YUV
    Chroma subsampling          : 4:2:0
    Bit depth                   : 8 bits
    Scan type                   : Progressive
    Bits/(Pixel*Frame)          : 0.082
    Stream size                 : 2.79 GiB (76%)
    Title                       : HD1080p [CinemaniaHDD]
    Writing library             : x264 core 163 r3059 b684ebe0
    Encoding settings           : cabac=1 / ref=4 / deblock=1:-1:-1 / analyse=0x3:0x133 / me=umh / subme=9 / psy=1 / psy_rd=1.00:0.15 / mixed_ref=1 / me_range=16 / chroma_me=1 / trellis=2 / 8x8dct=1 / cqm=0 / deadzone=21,11 / fast_pskip=1 / chroma_qp_offset=-3 / threads=24 / lookahead_threads=2 / sliced_threads=0 / nr=0 / decimate=1 / interlaced=0 / bluray_compat=0 / constrained_intra=0 / bframes=3 / b_pyramid=2 / b_adapt=2 / b_bias=0 / direct=3 / weightb=1 / open_gop=0 / weightp=2 / keyint=240 / keyint_min=24 / scenecut=40 / intra_refresh=0 / rc_lookahead=60 / rc=abr / mbtree=1 / bitrate=3500 / ratetol=1.0 / qcomp=0.60 / qpmin=0 / qpmax=69 / qpstep=4 / vbv_maxrate=62500 / vbv_bufsize=78125 / nal_hrd=none / filler=0 / ip_ratio=1.40 / aq=1:1.00
    Default                     : Yes
    Forced                      : Yes
    Color range                 : Limited
    Color primaries             : BT.709
    Transfer characteristics    : BT.709
    Matrix coefficients         : BT.709

    Audio #1
    ID                          : 2
    Format                      : AC-3
    Format/Info                 : Audio Coding 3
    Commercial name             : Dolby Digital
    Codec ID                    : A_AC3
    Duration                    : 1 h 57 min
    Bit rate mode               : Constant
    Bit rate                    : 640 kb/s
    Channel(s)                  : 6 channels
    Channel layout              : L R C LFE Ls Rs
    Sampling rate               : 48.0 kHz
    Frame rate                  : 31.250 FPS (1536 SPF)
    Compression mode            : Lossy
    Delay relative to video     : -5 ms
    Stream size                 : 536 MiB (14%)
    Title                       : Español Latino [CinemaniaHDD]
    Language                    : Spanish
    Service kind                : Complete Main
    Default                     : Yes
    Forced                      : Yes

    Audio #2
    ID                          : 3
    Format                      : AC-3
    Format/Info                 : Audio Coding 3
    Commercial name             : Dolby Digital
    Codec ID                    : A_AC3
    Duration                    : 1 h 57 min
    Bit rate mode               : Constant
    Bit rate                    : 448 kb/s
    Channel(s)                  : 6 channels
    Channel layout              : L R C LFE Ls Rs
    Sampling rate               : 48.0 kHz
    Frame rate                  : 31.250 FPS (1536 SPF)
    Compression mode            : Lossy
    Delay relative to video     : -5 ms
    Stream size                 : 375 MiB (10%)
    Title                       : Ingles [CinemaniaHDD]
    Language                    : English
    Service kind                : Complete Main
    Default                     : No
    Forced                      : No

    Text #1
    ID                          : 4
    Format                      : UTF-8
    Codec ID                    : S_TEXT/UTF8
    Codec ID/Info               : UTF-8 Plain Text
    Duration                    : 1 h 36 min
    Bit rate                    : 2 b/s
    Count of elements           : 51
    Stream size                 : 1.48 KiB (0%)
    Title                       : Forzados-SRT [CinemaniaHDD]
    Language                    : Spanish
    Default                     : Yes
    Forced                      : Yes

    Text #2
    ID                          : 5
    Format                      : UTF-8
    Codec ID                    : S_TEXT/UTF8
    Codec ID/Info               : UTF-8 Plain Text
    Duration                    : 1 h 50 min
    Bit rate                    : 46 b/s
    Count of elements           : 1138
    Stream size                 : 37.9 KiB (0%)
    Title                       : Español-SRT [CinemaniaHDD]
    Language                    : Spanish
    Default                     : No
    Forced                      : No

    Text #3
    ID                          : 6
    Format                      : UTF-8
    Codec ID                    : S_TEXT/UTF8
    Codec ID/Info               : UTF-8 Plain Text
    Duration                    : 1 h 49 min
    Bit rate                    : 52 b/s
    Count of elements           : 1434
    Stream size                 : 42.2 KiB (0%)
    Title                       : Ingles-SRT [CinemaniaHDD]
    Language                    : English
    Default                     : No
    Forced                      : No

    Menu
    00:00:00.000                : Chapter 01
    00:07:05.466                : Chapter 02
    00:12:34.879                : Chapter 03
    00:20:24.431                : Chapter 04
    00:25:17.140                : Chapter 05
    00:32:06.341                : Chapter 06
    00:40:49.572                : Chapter 07
    00:45:32.646                : Chapter 08
    00:51:01.975                : Chapter 09
    00:54:57.002                : Chapter 10
    01:04:24.652                : Chapter 11
    01:10:50.246                : Chapter 12
    01:18:06.556                : Chapter 13
    01:22:05.295                : Chapter 14
    01:27:40.421                : Chapter 15
    01:30:03.815                : Chapter 16
    01:36:57.853                : Chapter 17
    01:40:00.786                : Chapter 18
    01:44:47.239                : Chapter 19
    01:52:44.758                : Chapter 20

  • Peso: 3.68 GiB

Sinopsis

Descargar Blue Bayou (2021) HD 1080p Latino. En Luisiana, un hombre adulto de nombre Antonio, coreano adoptado y criado en Estados Unidos, se ve obligado a enfrentarse a su pasado -y lo que significa para su propio futuro y el de su familia- cuando de manera inesperada se enfrenta a la deportación.

Ficha técnica

  • Titulo original: Blue Bayou
  • Fecha de lanzamiento: 10-09-2021 (Canada, United States of America)
  • Director: Justin Chon
  • Género: Drama, HD 1080p

Video trailer de la película

Enlaces de descarga

Rip de Bluray

Descargar Blue Bayou (2021) HD 1080p Latino




Aportes de DPeliculasHDmega la pass es:dpeliculashdmega.org Aportes de CinemaniaHD la pass es:cinemaniahdd.com
Guardado en : Drama , HD 1080p

Películas relacionadas

descargar Blue Bayou (2021) HD 1080p Latino 1080p 1080p gratis, Blue Bayou (2021) HD 1080p Latino 1080p mega 1 link, Blue Bayou (2021) HD 1080p Latino 1080p pelicula completa, descargar Blue Bayou (2021) HD 1080p Latino 1080p gratis en mega.

Blue Bayou (2021) HD 1080p Latino pelicula full hd, Blue Bayou (2021) HD 1080p Latino mega latino, Blue Bayou (2021) HD 1080p Latino 4k latino, Blue Bayou (2021) HD 1080p Latino pelicula completa, Blue Bayou (2021) HD 1080p Latino descargar gratis, descargar Blue Bayou (2021) HD 1080p Latino pelicula latino, Blue Bayou (2021) HD 1080p Latino 1 link mega, Blue Bayou (2021) HD 1080p Latino 1 link google drive, Blue Bayou (2021) HD 1080p Latino hd 1080p latino.
Comentarios 0