×

¿Problemas para descargar con Mozilla, EDGE? Deshabilita la opción "Abrir vinculos en una pestaña nueva" tal como lo muestra ésta imagen.

Blow the Man Down (2019) AMZN Web-DL 1080p Latino

1.034 vistas

Información de Blow the Man Down (2019) AMZN Web-DL 1080p Latino

Datos de la película

  • Calidad: WEBDL
  • Audio: Español Latino AC3 5.1 AMAZON - Ingles AC3 5.1 AMAZON
  • Subtitulos: Español Latino SRT - Ingles SRT
  • Resolución: 1920x1040p
  • Formato: MKV
  • Codec: H.264
  • Encoder: CinemaniaHD
  • Mediainfo: Clic para Mostrar Datos Ver
  • Blow The Man Down (2019) AMZN Web-DL 1080p Latino.mkv
    Format                      : Matroska
    Format version              : Version 4
    File size                   : 8.37 GiB
    Duration                    : 1 h 31 min
    Overall bit rate            : 13.1 Mb/s
    Movie name                  : Blow The Man Down (2019) CinemaniaHDD.Net
    Encoded date                : UTC 2020-03-20 08:11:00
    Writing application         : mkvmerge v42.0.0 ('Overtime') 64-bit
    Writing library             : libebml v1.3.10 + libmatroska v1.5.2
    Attachments                 : CINEMANIAHD.png

    Video
    ID                          : 1
    Format                      : AVC
    Format/Info                 : Advanced Video Codec
    Format profile              : High@L4
    Format settings             : CABAC / 4 Ref Frames
    Format settings, CABAC      : Yes
    Format settings, ReFrames   : 4 frames
    Codec ID                    : V_MPEG4/ISO/AVC
    Duration                    : 1 h 31 min
    Bit rate                    : 12.1 Mb/s
    Width                       : 1 920 pixels
    Height                      : 1 040 pixels
    Display aspect ratio        : 1.85:1
    Frame rate mode             : Constant
    Frame rate                  : 23.976 (24000/1001) FPS
    Color space                 : YUV
    Chroma subsampling          : 4:2:0
    Bit depth                   : 8 bits
    Scan type                   : Progressive
    Bits/(Pixel*Frame)          : 0.252
    Stream size                 : 7.72 GiB (92%)
    Title                       : Web HD1080p [CinemaniaHDD]
    Default                     : Yes
    Forced                      : No
    Color range                 : Limited
    Color primaries             : BT.709
    Transfer characteristics    : BT.709
    Matrix coefficients         : BT.709

    Audio #1
    ID                          : 2
    Format                      : AC-3
    Format/Info                 : Audio Coding 3
    Commercial name             : Dolby Digital
    Codec ID                    : A_AC3
    Duration                    : 1 h 31 min
    Bit rate mode               : Constant
    Bit rate                    : 384 kb/s
    Channel(s)                  : 6 channels
    Channel layout              : L R C LFE Ls Rs
    Sampling rate               : 48.0 kHz
    Frame rate                  : 31.250 FPS (1536 SPF)
    Bit depth                   : 16 bits
    Compression mode            : Lossy
    Stream size                 : 251 MiB (3%)
    Title                       : Español Latino [CinemaniaHDD]
    Language                    : Spanish
    Service kind                : Complete Main
    Default                     : Yes
    Forced                      : No

    Audio #2
    ID                          : 3
    Format                      : E-AC-3
    Format/Info                 : Enhanced AC-3
    Commercial name             : Dolby Digital Plus
    Codec ID                    : A_EAC3
    Duration                    : 1 h 31 min
    Bit rate mode               : Constant
    Bit rate                    : 640 kb/s
    Channel(s)                  : 6 channels
    Channel layout              : L R C LFE Ls Rs
    Sampling rate               : 48.0 kHz
    Frame rate                  : 31.250 FPS (1536 SPF)
    Compression mode            : Lossy
    Stream size                 : 419 MiB (5%)
    Title                       : Ingles [CinemaniaHDD]
    Language                    : English
    Service kind                : Complete Main
    Default                     : No
    Forced                      : No

    Text #1
    ID                          : 4
    Format                      : UTF-8
    Codec ID                    : S_TEXT/UTF8
    Codec ID/Info               : UTF-8 Plain Text
    Duration                    : 47 min 17 s
    Bit rate                    : 1 b/s
    Count of elements           : 17
    Stream size                 : 465 Bytes (0%)
    Title                       : Forzados-SRT [CinemaniaHDD]
    Language                    : Spanish
    Default                     : Yes
    Forced                      : No

    Text #2
    ID                          : 5
    Format                      : UTF-8
    Codec ID                    : S_TEXT/UTF8
    Codec ID/Info               : UTF-8 Plain Text
    Duration                    : 1 h 22 min
    Bit rate                    : 39 b/s
    Count of elements           : 786
    Stream size                 : 24.1 KiB (0%)
    Title                       : Español-SRT [CinemaniaHDD]
    Language                    : Spanish
    Default                     : No
    Forced                      : No

    Text #3
    ID                          : 6
    Format                      : UTF-8
    Codec ID                    : S_TEXT/UTF8
    Codec ID/Info               : UTF-8 Plain Text
    Duration                    : 1 h 25 min
    Bit rate                    : 50 b/s
    Count of elements           : 1156
    Stream size                 : 31.4 KiB (0%)
    Title                       : Ingles-SRT [CinemaniaHDD]
    Language                    : Spanish
    Default                     : No
    Forced                      : No

    Menu
    00:00:00.000                : en:Amazon logo
    00:00:21.000                : en:Studio Logo
    00:00:39.000                : en:Fisherman's song
    00:02:19.000                : en:Title Sequence
    00:02:47.000                : en:Funeral at Church
    00:03:48.000                : en:Enid stares at outside
    00:04:29.000                : en:The girls are at kitchen
    00:06:13.000                : en:Priscilla argues with Mary Beth
    00:08:13.000                : en:Mary Beth leaves her house
    00:09:54.000                : en:Priscilla looks at picture of her mother
    00:11:12.000                : en:Mary Beth drives a car
    00:13:02.000                : en:Mary Beth feels scares
    00:16:24.000                : en:The girls take an action
    00:21:34.000                : en:Fisherman sing a song
    00:23:50.000                : en:Alexis talks to Enid
    00:25:02.000                : en:Justin asks for her skiff
    00:30:34.000                : en:Talking about Enid
    00:31:52.000                : en:Enid is at beauty shop
    00:35:34.000                : en:Enid finds something
    00:38:31.000                : en:Alexis gets mad
    00:40:36.000                : en:The officers visit Enid
    00:43:49.000                : en:The officers visits Declan
    00:47:48.000                : en:Alexis misses Dee
    00:49:36.000                : en:Enid visits the girls
    00:51:40.000                : en:The girls ask about Enid
    00:54:17.000                : en:Enid talks to Alexis
    00:58:35.000                : en:Enid threatens the girls
    01:01:20.000                : en:Priscilla gets upset
    01:05:57.000                : en:Justin comes to the girls house
    01:08:27.000                : en:Alexis reaches out to Susie
    01:11:00.000                : en:Susie, Gail and Doreen wait for Enid
    01:14:03.000                : en:The girls come to Enid's house
    01:20:10.000                : en:Fisherman is singing a song
    01:23:04.000                : en:The girls walk on a street
    01:26:30.000                : en:End Credits

  • Peso: 8.37 GiB

Sinopsis

Descargar Blow the Man Down (2019) AMZN Web-DL 1080p Latino. Mientras aún velan a su recién fallecida madre, las hermanas Connolly se ven envueltas de lleno en un crimen que han de encubrir y que les lleva a descubrir las entrañas del pueblo pesquero de Maine en el que viven.

Ficha técnica

Video trailer de la película

Enlaces de descarga

Rip de Bluray

Descargar Blow the Man Down (2019) AMZN Web-DL 1080p Latino




Aportes de DPeliculasHDmega la pass es:dpeliculashdmega.org Aportes de CinemaniaHD la pass es:cinemaniahdd.com
Guardado en : Drama , Misterio

Películas relacionadas

descargar Blow the Man Down (2019) AMZN Web-DL 1080p Latino WEBDL 1080p gratis, Blow the Man Down (2019) AMZN Web-DL 1080p Latino WEBDL mega 1 link, Blow the Man Down (2019) AMZN Web-DL 1080p Latino WEBDL pelicula completa, descargar Blow the Man Down (2019) AMZN Web-DL 1080p Latino WEBDL gratis en mega.

Blow the Man Down (2019) AMZN Web-DL 1080p Latino pelicula full hd, Blow the Man Down (2019) AMZN Web-DL 1080p Latino mega latino, Blow the Man Down (2019) AMZN Web-DL 1080p Latino 4k latino, Blow the Man Down (2019) AMZN Web-DL 1080p Latino pelicula completa, Blow the Man Down (2019) AMZN Web-DL 1080p Latino descargar gratis, descargar Blow the Man Down (2019) AMZN Web-DL 1080p Latino pelicula latino, Blow the Man Down (2019) AMZN Web-DL 1080p Latino 1 link mega, Blow the Man Down (2019) AMZN Web-DL 1080p Latino 1 link google drive, Blow the Man Down (2019) AMZN Web-DL 1080p Latino hd 1080p latino.
Comentarios 0