Bloodshot (2020) PLACEBO Full HD 1080p Latino

133 vistas
1 estrella2 estrellas3 estrellas4 estrellas5 estrellas (3 votos, promedio: 5,00 de 5)
Cargando…

Información de Bloodshot (2020) PLACEBO Full HD 1080p Latino

Datos de la película

  • Calidad: Full 1080p
  • Audio: Español Latino AC3 5.1 BLURAY - Ingles DTS 5.1 BLURAY
  • Subtitulos: Español Latino PGS - Ingles PGS
  • Resolución: 1920x1080p
  • Formato: MKV
  • Codec: H.264
  • Encoder: Melkor
  • Mediainfo: Clic para Mostrar Datos Ver
  • Bloodshot (2020) PLACEBO Full HD 1080p Latino.mkv
    Format                      : Matroska
    Format version              : Version 4
    File size                   : 6.28 GiB
    Duration                    : 1 h 49 min
    Overall bit rate            : 8 222 kb/s
    Movie name                  : Bloodshot (2020) CinemaniaHDD.Net
    Encoded date                : UTC 2020-04-26 20:35:12
    Writing application         : mkvmerge v42.0.0 ('Overtime') 64-bit
    Writing library             : libebml v1.3.10 + libmatroska v1.5.2
    Attachments                 : CINEMANIAHD.png

    Video
    ID                          : 1
    Format                      : AVC
    Format/Info                 : Advanced Video Codec
    Format profile              : High@L4.1
    Format settings             : CABAC / 4 Ref Frames
    Format settings, CABAC      : Yes
    Format settings, ReFrames   : 4 frames
    Codec ID                    : V_MPEG4/ISO/AVC
    Duration                    : 1 h 49 min
    Bit rate                    : 6 041 kb/s
    Width                       : 1 920 pixels
    Height                      : 1 080 pixels
    Display aspect ratio        : 16:9
    Frame rate mode             : Constant
    Frame rate                  : 23.976 (24000/1001) FPS
    Color space                 : YUV
    Chroma subsampling          : 4:2:0
    Bit depth                   : 8 bits
    Scan type                   : Progressive
    Bits/(Pixel*Frame)          : 0.122
    Stream size                 : 4.61 GiB (73%)
    Title                       : Full HD1080p [CinemaniaHDD]
    Writing library             : x264 core 157 r2935 545de2f
    Encoding settings           : cabac=1 / ref=4 / deblock=1:0:0 / analyse=0x3:0x133 / me=tesa / subme=11 / psy=1 / psy_rd=1.00:0.00 / mixed_ref=1 / me_range=24 / chroma_me=1 / trellis=2 / 8x8dct=1 / cqm=0 / deadzone=21,11 / fast_pskip=0 / chroma_qp_offset=-2 / threads=34 / lookahead_threads=8 / sliced_threads=0 / nr=0 / decimate=1 / interlaced=0 / bluray_compat=0 / constrained_intra=0 / bframes=16 / b_pyramid=2 / b_adapt=2 / b_bias=0 / direct=3 / weightb=1 / open_gop=0 / weightp=2 / keyint=240 / keyint_min=24 / scenecut=40 / intra_refresh=0 / rc_lookahead=60 / rc=crf / mbtree=1 / crf=19.0 / qcomp=0.60 / qpmin=0 / qpmax=69 / qpstep=4 / vbv_maxrate=62500 / vbv_bufsize=78125 / crf_max=0.0 / nal_hrd=none / filler=0 / ip_ratio=1.40 / aq=1:1.00
    Default                     : Yes
    Forced                      : Yes
    Color range                 : Limited
    Color primaries             : BT.709
    Transfer characteristics    : BT.709
    Matrix coefficients         : BT.709

    Audio #1
    ID                          : 2
    Format                      : AC-3
    Format/Info                 : Audio Coding 3
    Commercial name             : Dolby Digital
    Codec ID                    : A_AC3
    Duration                    : 1 h 49 min
    Bit rate mode               : Constant
    Bit rate                    : 640 kb/s
    Channel(s)                  : 6 channels
    Channel layout              : L R C LFE Ls Rs
    Sampling rate               : 48.0 kHz
    Frame rate                  : 31.250 FPS (1536 SPF)
    Bit depth                   : 16 bits
    Compression mode            : Lossy
    Delay relative to video     : 6 ms
    Stream size                 : 500 MiB (8%)
    Title                       : Español Latino [CinemaniaHDD]
    Language                    : Spanish
    Service kind                : Complete Main
    Default                     : Yes
    Forced                      : No

    Audio #2
    ID                          : 3
    Format                      : DTS
    Format/Info                 : Digital Theater Systems
    Codec ID                    : A_DTS
    Duration                    : 1 h 49 min
    Bit rate mode               : Constant
    Bit rate                    : 1 509 kb/s
    Channel(s)                  : 6 channels
    Channel layout              : C L R Ls Rs LFE
    Sampling rate               : 48.0 kHz
    Frame rate                  : 93.750 FPS (512 SPF)
    Bit depth                   : 24 bits
    Compression mode            : Lossy
    Stream size                 : 1.15 GiB (18%)
    Title                       : Ingles [CinemaniaHDD]
    Language                    : English
    Default                     : No
    Forced                      : No

    Text #1
    ID                          : 4
    Format                      : PGS
    Muxing mode                 : zlib
    Codec ID                    : S_HDMV/PGS
    Codec ID/Info               : Picture based subtitle format used on BDs/HD-DVDs
    Duration                    : 1 h 48 min
    Bit rate                    : 598 b/s
    Count of elements           : 48
    Stream size                 : 473 KiB (0%)
    Title                       : Forzados-PGS [CinemaniaHDD]
    Language                    : Spanish
    Default                     : Yes
    Forced                      : No

    Text #2
    ID                          : 5
    Format                      : PGS
    Muxing mode                 : zlib
    Codec ID                    : S_HDMV/PGS
    Codec ID/Info               : Picture based subtitle format used on BDs/HD-DVDs
    Duration                    : 1 h 48 min
    Bit rate                    : 25.7 kb/s
    Count of elements           : 2204
    Stream size                 : 19.9 MiB (0%)
    Title                       : Español-PGS [CinemaniaHDD]
    Language                    : Spanish
    Default                     : No
    Forced                      : No

    Text #3
    ID                          : 6
    Format                      : PGS
    Muxing mode                 : zlib
    Codec ID                    : S_HDMV/PGS
    Codec ID/Info               : Picture based subtitle format used on BDs/HD-DVDs
    Duration                    : 1 h 43 min
    Bit rate                    : 30.9 kb/s
    Count of elements           : 2318
    Stream size                 : 22.9 MiB (0%)
    Title                       : Ingles-PGS [CinemaniaHDD]
    Language                    : English
    Default                     : No
    Forced                      : No

    Text #4
    ID                          : 7
    Format                      : UTF-8
    Codec ID                    : S_TEXT/UTF8
    Codec ID/Info               : UTF-8 Plain Text
    Duration                    : 1 h 36 min
    Bit rate                    : 0 b/s
    Count of elements           : 23
    Stream size                 : 559 Bytes (0%)
    Title                       : Forzados-SRT [CinemaniaHDD]
    Language                    : Spanish
    Default                     : No
    Forced                      : No

    Text #5
    ID                          : 8
    Format                      : UTF-8
    Codec ID                    : S_TEXT/UTF8
    Codec ID/Info               : UTF-8 Plain Text
    Duration                    : 1 h 41 min
    Bit rate                    : 45 b/s
    Count of elements           : 1101
    Stream size                 : 33.7 KiB (0%)
    Title                       : Español-SRT [CinemaniaHDD]
    Language                    : Spanish
    Default                     : No
    Forced                      : No

    Menu
    00:00:00.000                : en:Chapter 01
    00:07:06.384                : en:Chapter 02
    00:13:56.210                : en:Chapter 03
    00:20:36.860                : en:Chapter 04
    00:25:05.545                : en:Chapter 05
    00:32:11.179                : en:Chapter 06
    00:41:41.499                : en:Chapter 07
    00:46:39.379                : en:Chapter 08
    00:53:35.629                : en:Chapter 09
    01:02:28.494                : en:Chapter 10
    01:08:59.343                : en:Chapter 11
    01:12:42.524                : en:Chapter 12
    01:19:15.917                : en:Chapter 13
    01:26:49.996                : en:Chapter 14
    01:31:07.378                : en:Chapter 15
    01:38:31.530                : en:Chapter 16

  • Peso: 6.28 GiB

Sinopsis

Descargar Bloodshot (2020) PLACEBO Full HD 1080p Latino. Ray Garrison, también conocido como Bloodshot, es resucitado por la compañía Rising Spirit Technologies a través del uso de nanotecnología. Mientras lucha por recuperar la memoria, Ray trata de volver al ser el que era antes de sufrir el accidente que dejaría amnésico. Película basada en el cómic «Valiant», creado por Kevin VanHook, Don Perlin y Bob Layton.

Ficha técnica

Video trailer de la película

Enlaces de descarga

Rip de Bluray

Descargar Bloodshot (2020) PLACEBO Full HD 1080p Latino




Aportes de DPeliculasHDmega la pass es:dpeliculashdmega.org Aportes de CinemaniaHD la pass es:cinemaniahdd.com

Películas relacionadas

  • Amenaza Roja (2012) HD 1080p Latino

    Amenaza Roja (2012) HD 1080p Latino

    2012
    Amenaza Roja (2012) HD 1080p Latino

    5.0 1h 33m 2012

    Remake de la película de 1984 de John Milius que narraba cómo ocho adolescentes huían a las montañas...

    Director: Joe Camp III

    Género: Acción

    Actores: Zachary Schafer

  • Amenaza Roja (2012) PLACEBO Full HD 1080p Latino

    Amenaza Roja (2012) PLACEBO Full HD 1080p Latino

    2012
    Amenaza Roja (2012) PLACEBO Full HD 1080p Latino

    5.0 1h 33m 2012

    Remake de la película de 1984 de John Milius que narraba cómo ocho adolescentes huían a las montañas...

    Director: Joe Camp III

    Género: Acción

    Actores: Zachary Schafer

  • Amenaza Roja (2012) REMUX 1080p Latino

    Amenaza Roja (2012) REMUX 1080p Latino

    2012
    Amenaza Roja (2012) REMUX 1080p Latino

    5.0 1h 33m 2012

    Remake de la película de 1984 de John Milius que narraba cómo ocho adolescentes huían a las montañas...

    Director: Joe Camp III

    Género: Acción

    Actores: Zachary Schafer

  • Beethoven (1992) Full HD 1080p Latino – CMHDD

    Beethoven (1992) Full HD 1080p Latino – CMHDD

    1992
    Beethoven (1992) Full HD 1080p Latino – CMHDD

    5.0 1h 25m 1992

    El pobre Beethoven, un perro San Bernardo, escapa milagrosamente de las garras de una banda de ladrones...

    Director: Todd Corman

    Género: Comedia

    Actores: Stephanie Durrer

  • Æon Flux (2005) HD 1080p Latino – CMHDD

    Æon Flux (2005) HD 1080p Latino – CMHDD

    2005
    Æon Flux (2005) HD 1080p Latino – CMHDD

    0.0 1h 30m 2005

    Ambientada 400 años en el futuro, una plaga ha hecho desaparecer a la mayoria de la población, excepto...

    Director: Trudy Ramirez

    Género: Acción

    Actores: Yangzom Brauen

Comentarios 0