×

¿Problemas para descargar con Mozilla, EDGE? Deshabilita la opción "Abrir vinculos en una pestaña nueva" tal como lo muestra ésta imagen.

Bloodshot (2020) AMZN Web-DL 1080p Latino

2.510 vistas

Información de Bloodshot (2020) AMZN Web-DL 1080p Latino

Datos de la película

  • Calidad: WEBDL
  • Audio: Se especifica abajo de la Sinopsis
  • Subtitulos: Español Latino SRT - Ingles SRT
  • Resolución: 1920x800p
  • Formato: MKV
  • Codec: H.264
  • Encoder: CinefiloCool
  • Mediainfo: Clic para Mostrar Datos Ver
  • Bloodshot (2020) AMZN Web-DL 1080p Latino-CMHDD.mkv
    Format                      : Matroska
    Format version              : Version 4
    File size                   : 7.26 GiB
    Duration                    : 1 h 49 min
    Overall bit rate            : 9 507 kb/s
    Movie name                  : Bloodshot (2019) CinemaniaHDD.Net
    Encoded date                : UTC 2020-03-25 01:45:59
    Writing application         : mkvmerge v42.0.0 ('Overtime') 64-bit
    Writing library             : libebml v1.3.10 + libmatroska v1.5.2
    Attachments                 : CINEMANIAHD.png

    Video
    ID                          : 1
    Format                      : AVC
    Format/Info                 : Advanced Video Codec
    Format profile              : High@L4
    Format settings             : CABAC / 4 Ref Frames
    Format settings, CABAC      : Yes
    Format settings, ReFrames   : 4 frames
    Codec ID                    : V_MPEG4/ISO/AVC
    Duration                    : 1 h 49 min
    Bit rate mode               : Constant
    Bit rate                    : 8 608 kb/s
    Nominal bit rate            : 10 000 kb/s
    Width                       : 1 920 pixels
    Height                      : 800 pixels
    Display aspect ratio        : 2.40:1
    Frame rate mode             : Constant
    Frame rate                  : 23.976 (24000/1001) FPS
    Color space                 : YUV
    Chroma subsampling          : 4:2:0
    Bit depth                   : 8 bits
    Scan type                   : Progressive
    Bits/(Pixel*Frame)          : 0.234
    Stream size                 : 6.57 GiB (91%)
    Title                       : Web HD1080p [CinemaniaHDD]
    Default                     : Yes
    Forced                      : No
    Color range                 : Limited
    Color primaries             : BT.709
    Transfer characteristics    : BT.709
    Matrix coefficients         : BT.709

    Audio #1
    ID                          : 2
    Format                      : AC-3
    Format/Info                 : Audio Coding 3
    Commercial name             : Dolby Digital
    Codec ID                    : A_AC3
    Duration                    : 1 h 49 min
    Bit rate mode               : Constant
    Bit rate                    : 256 kb/s
    Channel(s)                  : 2 channels
    Channel layout              : L R
    Sampling rate               : 48.0 kHz
    Frame rate                  : 31.250 FPS (1536 SPF)
    Bit depth                   : 16 bits
    Compression mode            : Lossy
    Delay relative to video     : 9 ms
    Stream size                 : 200 MiB (3%)
    Title                       : Español Latino [CinemaniaHDD]
    Language                    : Spanish
    Service kind                : Complete Main
    Default                     : Yes
    Forced                      : No

    Audio #2
    ID                          : 3
    Format                      : E-AC-3
    Format/Info                 : Enhanced AC-3
    Commercial name             : Dolby Digital Plus
    Codec ID                    : A_EAC3
    Duration                    : 1 h 49 min
    Bit rate mode               : Constant
    Bit rate                    : 640 kb/s
    Channel(s)                  : 6 channels
    Channel layout              : L R C LFE Ls Rs
    Sampling rate               : 48.0 kHz
    Frame rate                  : 31.250 FPS (1536 SPF)
    Compression mode            : Lossy
    Stream size                 : 500 MiB (7%)
    Title                       : Ingles [CinemaniaHDD]
    Language                    : English
    Service kind                : Complete Main
    Default                     : No
    Forced                      : No

    Text #1
    ID                          : 4
    Format                      : UTF-8
    Codec ID                    : S_TEXT/UTF8
    Codec ID/Info               : UTF-8 Plain Text
    Duration                    : 1 h 48 min
    Bit rate                    : 0 b/s
    Count of elements           : 24
    Stream size                 : 604 Bytes (0%)
    Title                       : Forzados-SRT [CinemaniaHDD]
    Language                    : Spanish
    Default                     : Yes
    Forced                      : No

    Text #2
    ID                          : 5
    Format                      : UTF-8
    Codec ID                    : S_TEXT/UTF8
    Codec ID/Info               : UTF-8 Plain Text
    Duration                    : 1 h 48 min
    Bit rate                    : 42 b/s
    Count of elements           : 1102
    Stream size                 : 33.6 KiB (0%)
    Title                       : Español-SRT [CinemaniaHDD]
    Language                    : Spanish
    Default                     : No
    Forced                      : No

    Text #3
    ID                          : 6
    Format                      : UTF-8
    Codec ID                    : S_TEXT/UTF8
    Codec ID/Info               : UTF-8 Plain Text
    Duration                    : 1 h 41 min
    Bit rate                    : 46 b/s
    Count of elements           : 1150
    Stream size                 : 34.9 KiB (0%)
    Title                       : Ingles-SRT [CinemaniaHDD]
    Language                    : Spanish
    Default                     : No
    Forced                      : No

    Menu
    00:00:00.000                : en:Studio Logo
    00:01:02.000                : en:Scene 2
    00:04:10.000                : en:Scene 3
    00:05:09.000                : en:Scene 4
    00:07:01.000                : en:Scene 5
    00:08:51.000                : en:Scene 6
    00:13:04.000                : en:Scene 7
    00:17:31.000                : en:Scene 8
    00:20:39.000                : en:Scene 9
    00:22:46.000                : en:Scene 10
    00:25:07.000                : en:Scene 11
    00:27:57.000                : en:Scene 12
    00:29:27.000                : en:Scene 13
    00:32:12.000                : en:Scene 14
    00:32:43.000                : en:Scene 15
    00:38:27.000                : en:Scene 16
    00:41:42.000                : en:Scene 17
    00:43:21.000                : en:Scene 18
    00:50:55.000                : en:Scene 19
    00:52:44.000                : en:Scene 20
    00:54:16.000                : en:Scene 21
    00:56:21.000                : en:Scene 22
    01:02:31.000                : en:Scene 23
    01:08:10.000                : en:Scene 24
    01:09:01.000                : en:Scene 25
    01:09:51.000                : en:Scene 26
    01:12:44.000                : en:Scene 27
    01:17:38.000                : en:Scene 28
    01:19:16.000                : en:Scene 29
    01:22:21.000                : en:Scene 30
    01:27:32.000                : en:Scene 31
    01:28:15.000                : en:Scene 32
    01:31:09.000                : en:Scene 33
    01:35:20.000                : en:Scene 34
    01:38:33.000                : en:Scene 35
    01:42:38.000                : en:End Credits

  • Peso: 7.26 GiB

Sinopsis

Descargar Bloodshot (2020) AMZN Web-DL 1080p Latino. Ray Garrison (Vin Diesel), también conocido como Bloodshot, es resucitado por la compañía Rising Spirit Technologies a través del uso de nanotecnología. Mientras lucha por recuperar la memoria, Ray trata de volver al ser el que era antes de sufrir el accidente que dejaría amnésico. Película basada en el cómic «Valiant», creado por Kevin VanHook, Don Perlin y Bob Layton.

Audio Español Latino AC3 2.0 Itunes – Ingles EAC3 5.1 AMZN

Ficha técnica

Video trailer de la película

Enlaces de descarga

Rip de Bluray

Descargar Bloodshot (2020) AMZN Web-DL 1080p Latino




Aportes de DPeliculasHDmega la pass es:dpeliculashdmega.org Aportes de CinemaniaHD la pass es:cinemaniahdd.com
Guardado en : Acción , Ciencia ficción

Películas relacionadas

  • Wire Room (2022) HD 1080p Latino

    Wire Room (2022) HD 1080p Latino

    2022
    Wire Room (2022) HD 1080p Latino

    1h 37m 2022

    Descargar Wire Room (2022) HD 1080p Latino. Mientras está de servicio en la sala de cables, un agente...

    Director: Matt Eskandari

    Género: Acción

    Actores: Texas Battle

  • Wire Room (2022) PLACEBO Full HD 1080p Latino

    Wire Room (2022) PLACEBO Full HD 1080p Latino

    2022
    Wire Room (2022) PLACEBO Full HD 1080p Latino

    1h 37m 2022

    Descargar Wire Room (2022) PLACEBO Full HD 1080p Latino. Mientras está de servicio en la sala de cables,...

    Director: Matt Eskandari

    Género: Acción

    Actores: Texas Battle

  • Wire Room (2022) REMUX 1080p Latino

    Wire Room (2022) REMUX 1080p Latino

    2022
    Wire Room (2022) REMUX 1080p Latino

    1h 37m 2022

    Descargar Wire Room (2022) REMUX 1080p Latino. Mientras está de servicio en la sala de cables, un agente...

    Director: Matt Eskandari

    Género: Acción

    Actores: Texas Battle

  • El Cuartel Secreto (2022) WEB-DL 4K UHD HDR Latino

    El Cuartel Secreto (2022) WEB-DL 4K UHD HDR Latino

    2022
    El Cuartel Secreto (2022) WEB-DL 4K UHD HDR Latino

    1h 44m 2022

    Descargar El Cuartel Secreto (2022) WEB-DL 4K UHD HDR Latino. Mientras pasan el rato después de la escuela,...

    Director: Henry Joost

    Género: 4K HDR

    Actores: Zeb Slone

  • El Cuartel Secreto (2022) WEB-DL 1080p Latino

    El Cuartel Secreto (2022) WEB-DL 1080p Latino

    2022
    El Cuartel Secreto (2022) WEB-DL 1080p Latino

    1h 44m 2022

    Descargar El Cuartel Secreto (2022) WEB-DL 1080p Latino. Mientras pasan el rato después de la escuela,...

    Director: Henry Joost

    Género: Acción

    Actores: Zeb Slone

descargar Bloodshot (2020) AMZN Web-DL 1080p Latino WEBDL 1080p gratis, Bloodshot (2020) AMZN Web-DL 1080p Latino WEBDL mega 1 link, Bloodshot (2020) AMZN Web-DL 1080p Latino WEBDL pelicula completa, descargar Bloodshot (2020) AMZN Web-DL 1080p Latino WEBDL gratis en mega.

Bloodshot (2020) AMZN Web-DL 1080p Latino pelicula full hd, Bloodshot (2020) AMZN Web-DL 1080p Latino mega latino, Bloodshot (2020) AMZN Web-DL 1080p Latino 4k latino, Bloodshot (2020) AMZN Web-DL 1080p Latino pelicula completa, Bloodshot (2020) AMZN Web-DL 1080p Latino descargar gratis, descargar Bloodshot (2020) AMZN Web-DL 1080p Latino pelicula latino, Bloodshot (2020) AMZN Web-DL 1080p Latino 1 link mega, Bloodshot (2020) AMZN Web-DL 1080p Latino 1 link google drive, Bloodshot (2020) AMZN Web-DL 1080p Latino hd 1080p latino.
Comentarios 0