×

¿Problemas para descargar con Mozilla, EDGE? Deshabilita la opción "Abrir vinculos en una pestaña nueva" tal como lo muestra ésta imagen.

Blood Machines (2019) [AMZN] 1080p SUB -CMHDD

505 vistas

Información de Blood Machines (2019) [AMZN] 1080p SUB -CMHDD

Datos de la película

  • Calidad: WEBDL
  • Audio: Se especifica abajo de la Sinopsis
  • Subtitulos: Español Latino SRT
  • Resolución: 1920x800p
  • Formato: MKV
  • Codec: H.264
  • Encoder: Dracarys
  • Mediainfo: Clic para Mostrar Datos Ver
  • Format                      : Matroska
    Format version              : Version 4
    File size                   : 1.47 GiB
    Duration                    : 21 min 9 s
    Overall bit rate            : 9 974 kb/s
    Movie name                  : Blood.Machines (2019) [S01E02] Chapter Two-Corey [AMZN] 1080p SUB - CMHDD
    Encoded date                : UTC 2020-06-15 04:44:49
    Writing application         : mkvmerge v46.0.0 ('No Deeper Escape') 64-bit
    Writing library             : libebml v1.3.10 + libmatroska v1.5.2

    Video
    ID                          : 1
    Format                      : AVC
    Format/Info                 : Advanced Video Codec
    Format profile              : High@L4
    Format settings             : CABAC / 4 Ref Frames
    Format settings, CABAC      : Yes
    Format settings, Reference  : 4 frames
    Codec ID                    : V_MPEG4/ISO/AVC
    Duration                    : 21 min 9 s
    Bit rate mode               : Constant
    Bit rate                    : 10 000 kb/s
    Width                       : 1 920 pixels
    Height                      : 800 pixels
    Display aspect ratio        : 2.40:1
    Frame rate mode             : Constant
    Frame rate                  : 25.000 FPS
    Color space                 : YUV
    Chroma subsampling          : 4:2:0
    Bit depth                   : 8 bits
    Scan type                   : Progressive
    Bits/(Pixel*Frame)          : 0.260
    Stream size                 : 1.44 GiB (98%)
    Default                     : Yes
    Forced                      : No
    Color range                 : Limited
    Color primaries             : BT.709
    Transfer characteristics    : BT.709
    Matrix coefficients         : BT.709

    Audio
    ID                          : 2
    Format                      : E-AC-3
    Format/Info                 : Enhanced AC-3
    Commercial name             : Dolby Digital Plus
    Codec ID                    : A_EAC3
    Duration                    : 21 min 9 s
    Bit rate mode               : Constant
    Bit rate                    : 224 kb/s
    Channel(s)                  : 2 channels
    Channel layout              : L R
    Sampling rate               : 48.0 kHz
    Frame rate                  : 31.250 FPS (1536 SPF)
    Compression mode            : Lossy
    Stream size                 : 33.9 MiB (2%)
    Language                    : English
    Service kind                : Complete Main
    Default                     : Yes
    Forced                      : No

    Text
    ID                          : 3
    Format                      : UTF-8
    Codec ID                    : S_TEXT/UTF8
    Codec ID/Info               : UTF-8 Plain Text
    Duration                    : 16 min 30 s
    Bit rate                    : 29 b/s
    Count of elements           : 104
    Stream size                 : 3.52 KiB (0%)
    Language                    : Spanish
    Default                     : Yes
    Forced                      : No

  • Peso: 1.40 GiB X Capitulo

Sinopsis

Dos cazadores espaciales persiguen a una nave. Cuando intentan desactivarla son testigos de un extraño fenómeno: el fantasma de una mujer joven sale de la carcasa, como si la nave tuviera alma propia.

 

Ingles: E-AC3 5.1 Amazon

Ficha técnica

Video trailer de la película

Enlaces de descarga

Rip de Bluray

Descargar Blood Machines (2019) [AMZN] 1080p SUB -CMHDD




Aportes de DPeliculasHDmega la pass es:dpeliculashdmega.org Aportes de CinemaniaHD la pass es:cinemaniahdd.com
Guardado en : Aventura , Ciencia ficción , Música

Películas relacionadas

descargar Blood Machines (2019) [AMZN] 1080p SUB -CMHDD WEBDL 1080p gratis, Blood Machines (2019) [AMZN] 1080p SUB -CMHDD WEBDL mega 1 link, Blood Machines (2019) [AMZN] 1080p SUB -CMHDD WEBDL pelicula completa, descargar Blood Machines (2019) [AMZN] 1080p SUB -CMHDD WEBDL gratis en mega.

Blood Machines (2019) [AMZN] 1080p SUB -CMHDD pelicula full hd, Blood Machines (2019) [AMZN] 1080p SUB -CMHDD mega latino, Blood Machines (2019) [AMZN] 1080p SUB -CMHDD 4k latino, Blood Machines (2019) [AMZN] 1080p SUB -CMHDD pelicula completa, Blood Machines (2019) [AMZN] 1080p SUB -CMHDD descargar gratis, descargar Blood Machines (2019) [AMZN] 1080p SUB -CMHDD pelicula latino, Blood Machines (2019) [AMZN] 1080p SUB -CMHDD 1 link mega, Blood Machines (2019) [AMZN] 1080p SUB -CMHDD 1 link google drive, Blood Machines (2019) [AMZN] 1080p SUB -CMHDD hd 1080p latino.
Comentarios 0