Blood Brother (2018) WEBDL 1080p Latino

988 vistas
1 estrella2 estrellas3 estrellas4 estrellas5 estrellas (Ninguna valoración todavía)
Cargando…

Información de Blood Brother (2018) WEBDL 1080p Latino

Datos de la película

  • Calidad: WEBDL
  • Audio: Español Latino AC3 5.1 DVD - Ingles AC3 5.1 iTunes
  • Subtitulos: Español Latino SRT
  • Resolución: 1908x1068
  • Formato: MKV
  • Codec: H.264
  • Encoder: EVO
  • Mediainfo: Clic para Mostrar Datos Ver
  • Blood Brother (2018) WEBDL 1080p Latino.mkv
    Format                      : Matroska
    Format version              : Version 4
    File size                   : 3.55 GiB
    Duration                    : 1 h 25 min
    Overall bit rate            : 5 955 kb/s
    Movie name                  : CinemaniaHDD.net
    Encoded date                : UTC 2018-12-11 18:20:41
    Writing application         : mkvmerge v28.2.0 ('The Awakening') 64-bit
    Writing library             : libebml v1.3.6 + libmatroska v1.4.9

    Video
    ID                          : 1
    Format                      : AVC
    Format/Info                 : Advanced Video Codec
    Format profile              : [email protected]
    Format settings             : CABAC / 4 Ref Frames
    Format settings, CABAC      : Yes
    Format settings, ReFrames   : 4 frames
    Codec ID                    : V_MPEG4/ISO/AVC
    Duration                    : 1 h 25 min
    Bit rate                    : 5 185 kb/s
    Width                       : 1 908 pixels
    Height                      : 1 068 pixels
    Display aspect ratio        : 16:9
    Frame rate mode             : Constant
    Frame rate                  : 23.976 (24000/1001) FPS
    Color space                 : YUV
    Chroma subsampling          : 4:2:0
    Bit depth                   : 8 bits
    Scan type                   : Progressive
    Bits/(Pixel*Frame)          : 0.106
    Stream size                 : 3.09 GiB (87%)
    Language                    : English
    Default                     : Yes
    Forced                      : No
    Color range                 : Limited
    Color primaries             : BT.709
    Transfer characteristics    : BT.709
    Matrix coefficients         : BT.709

    Audio #1
    ID                          : 2
    Format                      : AC-3
    Format/Info                 : Audio Coding 3
    Commercial name             : Dolby Digital
    Codec ID                    : A_AC3
    Duration                    : 1 h 25 min
    Bit rate mode               : Constant
    Bit rate                    : 384 kb/s
    Channel(s)                  : 6 channels
    Channel layout              : L R C LFE Ls Rs
    Sampling rate               : 48.0 kHz
    Frame rate                  : 31.250 FPS (1536 SPF)
    Bit depth                   : 16 bits
    Compression mode            : Lossy
    Delay relative to video     : -42 ms
    Stream size                 : 235 MiB (6%)
    Language                    : Spanish
    Service kind                : Complete Main
    Default                     : Yes
    Forced                      : No

    Audio #2
    ID                          : 3
    Format                      : AC-3
    Format/Info                 : Audio Coding 3
    Commercial name             : Dolby Digital
    Codec ID                    : A_AC3
    Duration                    : 1 h 25 min
    Bit rate mode               : Constant
    Bit rate                    : 384 kb/s
    Channel(s)                  : 6 channels
    Channel layout              : L R C LFE Ls Rs
    Sampling rate               : 48.0 kHz
    Frame rate                  : 31.250 FPS (1536 SPF)
    Bit depth                   : 16 bits
    Compression mode            : Lossy
    Delay relative to video     : -42 ms
    Stream size                 : 235 MiB (6%)
    Language                    : English
    Service kind                : Complete Main
    Default                     : No
    Forced                      : No

    Text
    ID                          : 4
    Format                      : UTF-8
    Codec ID                    : S_TEXT/UTF8
    Codec ID/Info               : UTF-8 Plain Text
    Duration                    : 1 h 20 min
    Bit rate                    : 51 b/s
    Count of elements           : 1002
    Stream size                 : 30.2 KiB (0%)
    Language                    : Spanish
    Default                     : Yes
    Forced                      : No

    Menu
    00:00:00.000                : en:1
    00:04:42.000                : en:2
    00:15:13.000                : en:3
    00:25:18.000                : en:4
    00:33:25.000                : en:5
    00:44:00.000                : en:6
    00:55:00.000                : en:7
    01:06:15.000                : en:8
    01:15:39.000                : en:9
    01:21:59.000                : en:10

  • Peso: 3.55 GiB

Sinopsis

El hermano de sangre se desarrolla en las calles de una ciudad en decadencia, donde un convicto recientemente liberado comienza a tomar una venganza asesina contra sus amigos de la infancia, a quienes cree que lo dejaron caer por un crimen que cometieron colectivamente. A medida que los cuerpos comienzan a acumularse, uno de los amigos, ahora un policía, no se detendrá ante nada para poner fin al alboroto asesino y para corregir los errores de su trágicamente violento pasado.

Ficha técnica

  • Titulo original: Blood Brother
  • Fecha de lanzamiento: 30-11-2018 (United States of America)
  • Director: John Pogue
  • Género: Acción, Crimen, Drama
  • Puntuación: 0.0 0 votos
  • Duración:
    1h 30m

Video trailer de la película

Enlaces de descarga

Rip de Bluray

Descargar Blood Brother (2018) WEBDL 1080p Latino




Aportes de DPeliculasHDmega la pass es:dpeliculashdmega.org Aportes de CinemaniaHD la pass es:cinemaniahdd.com
Guardado en : Acción , Crimen , Drama

Películas relacionadas

  • Yo, robot (2004) REMUX (Open Matte) 1080p Latino

    2004
    Yo, robot (2004) REMUX (Open Matte) 1080p Latino

    3.7 2h 3m 2004

    En el año 2035, los robots son unos dispositivos que usamos todos los días y en quienes confiamos,...

    Director: Tracey Poirier

    Género: Acción

    Actores: Will Smith

  • Man On A Ledge (2012) REMUX (Open Matte) 1080P Latino

    2012
    Man On A Ledge (2012) REMUX (Open Matte) 1080P Latino

    0.0 1h 42m 2012

    Nick Cassidy (Sam Worthington), un antiguo agente de policía, se escapa de la cárcel y se dirige al...

    Director: Melissa Kalbfus

    Género: Acción

    Actores: William Sadler

  • Los Despiadados (2019) NF 1080p Latino

    2019
    Los Despiadados (2019) NF 1080p Latino

    0.0 1h 51m 2019

    Un adolescente rebelde acaba convirtiéndose en uno de los mafiosos más ambiciosos de Milán durante...

    Director: Renato De Maria

    Género: Crimen

    Actores: Valentine Payen

Comentarios 0