×

¿Problemas para descargar con Mozilla, EDGE? Deshabilita la opción "Abrir vinculos en una pestaña nueva" tal como lo muestra ésta imagen.

Bliss (2021) AMZN WEB-DL 1080p Latino

337 vistas

Información de Bliss (2021) AMZN WEB-DL 1080p Latino

Datos de la película

  • Calidad: WEBDL
  • Audio: Español Latino E-AC3 5.1 AMAZON - Ingles E-AC3 5.1 AMAZON
  • Subtitulos: Español Latino SRT- FORZADOS SRT
  • Resolución: 1920x800
  • Formato: MKV
  • Codec: H.264
  • Encoder: cinemaniahdd
  • Mediainfo: Clic para Mostrar Datos Ver
  • Bliss (2021) AMZN WEB-DL 1080p Latino [CNMNHDD].mkv
    Format                      : Matroska
    Format version              : Version 4
    File size                   : 7.62 GiB
    Duration                    : 1 h 43 min
    Overall bit rate            : 10.5 Mb/s
    Movie name                  : Bliss (2021) - CinemaniaHDD.Net
    Encoded date                : UTC 2021-02-05 02:18:45
    Writing application         : mkvmerge v51.0.0 ('I Wish') 64-bit
    Writing library             : libebml v1.4.0 + libmatroska v1.6.2

    Video
    ID                          : 1
    Format                      : AVC
    Format/Info                 : Advanced Video Codec
    Format profile              : High@L4
    Format settings             : CABAC / 4 Ref Frames
    Format settings, CABAC      : Yes
    Format settings, Reference  : 4 frames
    Codec ID                    : V_MPEG4/ISO/AVC
    Duration                    : 1 h 43 min
    Bit rate mode               : Constant
    Bit rate                    : 8 581 kb/s
    Nominal bit rate            : 10 000 kb/s
    Width                       : 1 920 pixels
    Height                      : 800 pixels
    Display aspect ratio        : 2.40:1
    Frame rate mode             : Constant
    Frame rate                  : 23.976 (24000/1001) FPS
    Color space                 : YUV
    Chroma subsampling          : 4:2:0
    Bit depth                   : 8 bits
    Scan type                   : Progressive
    Bits/(Pixel*Frame)          : 0.233
    Stream size                 : 6.23 GiB (82%)
    Title                       : CinemaniaHDD
    Default                     : Yes
    Forced                      : No
    Color range                 : Limited
    Color primaries             : BT.709
    Transfer characteristics    : BT.709
    Matrix coefficients         : BT.709

    Audio #1
    ID                          : 2
    Format                      : AC-3
    Format/Info                 : Audio Coding 3
    Commercial name             : Dolby Digital
    Codec ID                    : A_AC3
    Duration                    : 1 h 43 min
    Bit rate mode               : Constant
    Bit rate                    : 640 kb/s
    Channel(s)                  : 6 channels
    Channel layout              : L R C LFE Ls Rs
    Sampling rate               : 48.0 kHz
    Frame rate                  : 31.250 FPS (1536 SPF)
    Compression mode            : Lossy
    Stream size                 : 476 MiB (6%)
    Title                       : Español latino - AC3 [CinemaniaHDD]
    Language                    : Spanish
    Service kind                : Complete Main
    Default                     : Yes
    Forced                      : No

    Audio #2
    ID                          : 3
    Format                      : E-AC-3
    Format/Info                 : Enhanced AC-3
    Commercial name             : Dolby Digital Plus
    Codec ID                    : A_EAC3
    Duration                    : 1 h 43 min
    Bit rate mode               : Constant
    Bit rate                    : 640 kb/s
    Channel(s)                  : 6 channels
    Channel layout              : L R C LFE Ls Rs
    Sampling rate               : 48.0 kHz
    Frame rate                  : 31.250 FPS (1536 SPF)
    Compression mode            : Lossy
    Stream size                 : 476 MiB (6%)
    Title                       : Español latino - E-AC3 [CinemaniaHDD]
    Language                    : Spanish
    Service kind                : Complete Main
    Default                     : No
    Forced                      : No

    Audio #3
    ID                          : 4
    Format                      : E-AC-3
    Format/Info                 : Enhanced AC-3
    Commercial name             : Dolby Digital Plus
    Codec ID                    : A_EAC3
    Duration                    : 1 h 43 min
    Bit rate mode               : Constant
    Bit rate                    : 640 kb/s
    Channel(s)                  : 6 channels
    Channel layout              : L R C LFE Ls Rs
    Sampling rate               : 48.0 kHz
    Frame rate                  : 31.250 FPS (1536 SPF)
    Compression mode            : Lossy
    Stream size                 : 476 MiB (6%)
    Title                       : Inglés - E-AC3 [CinemaniaHDD]
    Language                    : English
    Service kind                : Complete Main
    Default                     : No
    Forced                      : No

    Text #1
    ID                          : 5
    Format                      : UTF-8
    Codec ID                    : S_TEXT/UTF8
    Codec ID/Info               : UTF-8 Plain Text
    Duration                    : 1 h 36 min
    Bit rate                    : 0 b/s
    Count of elements           : 16
    Stream size                 : 412 Bytes (0%)
    Title                       : Forzados [CinemaniaHDD]
    Language                    : Spanish
    Default                     : Yes
    Forced                      : Yes

    Text #2
    ID                          : 6
    Format                      : UTF-8
    Codec ID                    : S_TEXT/UTF8
    Codec ID/Info               : UTF-8 Plain Text
    Duration                    : 1 h 42 min
    Bit rate                    : 48 b/s
    Count of elements           : 1149
    Stream size                 : 36.5 KiB (0%)
    Title                       : Español latino [CinemaniaHDD]
    Language                    : Spanish
    Default                     : No
    Forced                      : No

    Text #3
    ID                          : 7
    Format                      : UTF-8
    Codec ID                    : S_TEXT/UTF8
    Codec ID/Info               : UTF-8 Plain Text
    Duration                    : 1 h 43 min
    Bit rate                    : 65 b/s
    Count of elements           : 1762
    Stream size                 : 49.8 KiB (0%)
    Title                       : Inglés [CinemaniaHDD]
    Language                    : English
    Default                     : No
    Forced                      : No

    Menu
    00:00:00.000                : en:Amazon Original
    00:00:19.000                : en:Studio Logo
    00:00:27.000                : en:Opening Credits
    00:00:40.000                : en:The feeling is real
    00:01:03.000                : en:Title Sequence
    00:01:08.000                : en:A stressful day at work
    00:07:46.000                : en:Bad news
    00:11:34.000                : en:Meeting Isabel
    00:18:41.000                : en:Lying low
    00:27:22.000                : en:Emily asks Arthur for help
    00:29:44.000                : en:Cut through the illusions
    00:34:44.000                : en:Emily looks for her dad
    00:35:24.000                : en:Reality sets in
    00:37:56.000                : en:Refilling the amulet
    00:42:58.000                : en:Exiting
    00:53:25.000                : en:Exploring a new world
    00:56:36.000                : en:Searching and seeking
    00:57:30.000                : en:Thought visualizer
    01:04:19.000                : en:A black tie affair
    01:09:14.000                : en:Bliss is a state of mind
    01:20:35.000                : en:The worlds blur
    01:21:38.000                : en:Back in the simulation
    01:25:00.000                : en:Finding Kendo
    01:26:35.000                : en:In a pickle
    01:32:49.000                : en:Chasing bliss
    01:37:16.000                : en:Title Sequence
    01:37:25.000                : en:Recovery
    01:38:54.000                : en:End Credits

     

  • Peso: 7.62 GiB

Sinopsis

Dicha es una historia de amor alucinante que surge luego que Greg (Owen Wilson), divorciado y despedido del trabajo, conoce a la misteriosa Isabel (Salma Hayek), una mujer que vive en la calle y está convencida de que el mundo contaminado y destrozado que los rodea no es sino una simulación por computadora. Greg, quien al principio duda, al final descubre que Isabel podría tener algo de razón.

Ficha técnica

Video trailer de la película

Enlaces de descarga

Rip de Bluray

Descargar Bliss (2021) AMZN WEB-DL 1080p Latino




Aportes de DPeliculasHDmega la pass es:dpeliculashdmega.org Aportes de CinemaniaHD la pass es:cinemaniahdd.com
Guardado en : Ciencia ficción , Drama , Romance

Películas relacionadas

  • Un mundo extraño (2022) HD 1080p Latino

    Un mundo extraño (2022) HD 1080p Latino

    2022
    Un mundo extraño (2022) HD 1080p Latino

    1h 42m 2022

    Descargar Un mundo extraño (2022) HD 1080p Latino. Los Clades son una familia conocida en todo el mundo,...

    Director: Thai Bettistea

    Género: Animación

    Actores: Reed Buck

  • Un mundo extraño (2022) REMUX 1080p Latino

    Un mundo extraño (2022) REMUX 1080p Latino

    2022
    Un mundo extraño (2022) REMUX 1080p Latino

    1h 42m 2022

    Descargar Un mundo extraño (2022) REMUX 1080p. Un viaje a una tierra inexplorada y traicionera en la...

    Director: Thai Bettistea

    Género: Animación

    Actores: Reed Buck

  • Stromboli (2022) NF WEB-DL 1080p Latino

    Stromboli (2022) NF WEB-DL 1080p Latino

    2022
    Stromboli (2022) NF WEB-DL 1080p Latino

    1h 26m 2022

    Descargar Stromboli (2022) NF WEB-DL 1080p Latino. Sara, una mujer que se ha divorciado recientemente,...

    Director: Michiel van Erp

    Género: Drama

    Actores: Tim McInnerny

descargar Bliss (2021) AMZN WEB-DL 1080p Latino WEBDL 1080p gratis, Bliss (2021) AMZN WEB-DL 1080p Latino WEBDL mega 1 link, Bliss (2021) AMZN WEB-DL 1080p Latino WEBDL pelicula completa, descargar Bliss (2021) AMZN WEB-DL 1080p Latino WEBDL gratis en mega.

Bliss (2021) AMZN WEB-DL 1080p Latino pelicula full hd, Bliss (2021) AMZN WEB-DL 1080p Latino mega latino, Bliss (2021) AMZN WEB-DL 1080p Latino 4k latino, Bliss (2021) AMZN WEB-DL 1080p Latino pelicula completa, Bliss (2021) AMZN WEB-DL 1080p Latino descargar gratis, descargar Bliss (2021) AMZN WEB-DL 1080p Latino pelicula latino, Bliss (2021) AMZN WEB-DL 1080p Latino 1 link mega, Bliss (2021) AMZN WEB-DL 1080p Latino 1 link google drive, Bliss (2021) AMZN WEB-DL 1080p Latino hd 1080p latino.
Comentarios 0