Blindspotting (2018) Full 1080p Latino

916 vistas
1 estrella2 estrellas3 estrellas4 estrellas5 estrellas (1 votos, promedio: 5,00 de 5)
Cargando…

Información de Blindspotting (2018) Full 1080p Latino

Datos de la película

  • Calidad: Full 1080p
  • Audio: Español Latino AC3 5.1 BLURAY - Ingles DTS 5.1 BLURAY
  • Subtitulos: Español Latino PGS - Ingles PGS
  • Resolución: 1920x1080p
  • Formato: MKV
  • Codec: H.264
  • Encoder: Dracarys
  • Mediainfo: Clic para Mostrar Datos Ver
  • Format                                   : Matroska
    Format version                           : Version 4 / Version 2
    File size                                : 5.63 GiB
    Duration                                 : 1 h 35 min
    Overall bit rate                         : 8 449 kb/s
    Movie name                               : CinemaniaHDD.net
    Encoded date                             : UTC 2018-11-27 18:05:04 / UTC 2018-11-26T05:46:41Z
    Writing application                      : mkvmerge v15.0.0 ('Duel with the Devil') 64-bit
    Writing library                          : libebml v1.3.5 + libmatroska v1.4.5 / Lavf57.7.2

    Video
    ID                                       : 1
    Format                                   : AVC
    Format/Info                              : Advanced Video Codec
    Format profile                           : High@L4.1
    Format settings                          : CABAC / 4 Ref Frames
    Format settings, CABAC                   : Yes
    Format settings, RefFrames               : 4 frames
    Codec ID                                 : V_MPEG4/ISO/AVC
    Duration                                 : 1 h 35 min
    Bit rate                                 : 7 193 kb/s
    Width                                    : 1 920 pixels
    Height                                   : 1 080 pixels
    Display aspect ratio                     : 16:9
    Frame rate mode                          : Constant
    Frame rate                               : 23.976 (24000/1001) FPS
    Color space                              : YUV
    Chroma subsampling                       : 4:2:0
    Bit depth                                : 8 bits
    Scan type                                : Progressive
    Bits/(Pixel*Frame)                       : 0.145
    Stream size                              : 4.79 GiB (85%)
    Writing library                          : x264 core 148 r2708 86b7198
    Encoding settings                        : cabac=1 / ref=4 / deblock=1:0:0 / analyse=0x3:0x133 / me=esa / subme=10 / psy=1 / psy_rd=1.00:0.00 / mixed_ref=1 / me_range=24 / chroma_me=1 / trellis=2 / 8x8dct=1 / cqm=0 / deadzone=21,11 / fast_pskip=1 / chroma_qp_offset=-2 / threads=34 / lookahead_threads=5 / sliced_threads=0 / nr=0 / decimate=1 / interlaced=0 / bluray_compat=0 / constrained_intra=0 / bframes=8 / b_pyramid=2 / b_adapt=2 / b_bias=0 / direct=3 / weightb=1 / open_gop=0 / weightp=2 / keyint=240 / keyint_min=24 / scenecut=40 / intra_refresh=0 / rc_lookahead=60 / rc=crf / mbtree=1 / crf=20.0 / qcomp=0.60 / qpmin=0 / qpmax=69 / qpstep=4 / vbv_maxrate=62500 / vbv_bufsize=78125 / crf_max=0.0 / nal_hrd=none / filler=0 / ip_ratio=1.40 / aq=1:1.00
    Language                                 : English
    Default                                  : Yes
    Forced                                   : No
    Color range                              : Limited
    Color primaries                          : BT.709
    Transfer characteristics                 : BT.709
    Matrix coefficients                      : BT.709
    Statistics Tags Issue                    : mkvmerge v15.0.0 ('Duel with the Devil') 64-bit 2018-11-27 18:05:04 / mkvmerge v15.0.0 ('Duel with the Devil') 64-bit 2018-11-27 18:05:04 / UTC 2018-11-26T05:46:41Z
    FromStats_BitRate                        : 7309198
    FromStats_Duration                       : 01:35:25.720000000
    FromStats_FrameCount                     : 137280
    FromStats_StreamSize                     : 5231303203

    Audio #1
    ID                                       : 2
    Format                                   : AC-3
    Format/Info                              : Audio Coding 3
    Format settings, Endianness              : Big
    Codec ID                                 : A_AC3
    Duration                                 : 1 h 35 min
    Bit rate mode                            : Constant
    Bit rate                                 : 448 kb/s
    Channel(s)                               : 6 channels
    Channel positions                        : Front: L C R, Side: L R, LFE
    Sampling rate                            : 48.0 kHz
    Frame rate                               : 31.250 FPS (1536 SPF)
    Bit depth                                : 16 bits
    Compression mode                         : Lossy
    Delay relative to video                  : 64 ms
    Stream size                              : 306 MiB (5%)
    Language                                 : Spanish
    Service kind                             : Complete Main
    Default                                  : Yes
    Forced                                   : No
    Statistics Tags Issue                    : mkvmerge v15.0.0 ('Duel with the Devil') 64-bit 2018-11-27 18:05:04 / mkvmerge v15.0.0 ('Duel with the Devil') 64-bit 2018-11-27 18:05:04 / UTC 2018-11-26T05:46:41Z
    FromStats_BitRate                        : 448000
    FromStats_Duration                       : 01:35:25.664000000
    FromStats_FrameCount                     : 178927
    FromStats_StreamSize                     : 320637184

    Audio #2
    ID                                       : 3
    Format                                   : AC-3
    Format/Info                              : Audio Coding 3
    Format settings, Endianness              : Big
    Codec ID                                 : A_AC3
    Duration                                 : 1 h 35 min
    Bit rate mode                            : Constant
    Bit rate                                 : 640 kb/s
    Channel(s)                               : 6 channels
    Channel positions                        : Front: L C R, Side: L R, LFE
    Sampling rate                            : 48.0 kHz
    Frame rate                               : 31.250 FPS (1536 SPF)
    Bit depth                                : 16 bits
    Compression mode                         : Lossy
    Delay relative to video                  : 64 ms
    Stream size                              : 437 MiB (8%)
    Language                                 : English
    Service kind                             : Complete Main
    Default                                  : No
    Forced                                   : No
    Statistics Tags Issue                    : mkvmerge v15.0.0 ('Duel with the Devil') 64-bit 2018-11-27 18:05:04 / mkvmerge v15.0.0 ('Duel with the Devil') 64-bit 2018-11-27 18:05:04 / UTC 2018-11-26T05:46:41Z
    FromStats_BitRate                        : 640000
    FromStats_Duration                       : 01:35:24.480000000
    FromStats_FrameCount                     : 178890
    FromStats_StreamSize                     : 457958400

    Text #1
    ID                                       : 4
    Format                                   : PGS
    Muxing mode                              : zlib
    Codec ID                                 : S_HDMV/PGS
    Codec ID/Info                            : Picture based subtitle format used on BDs/HD-DVDs
    Language                                 : English
    Default                                  : No
    Forced                                   : No
    Statistics Tags Issue                    : mkvmerge v15.0.0 ('Duel with the Devil') 64-bit 2018-11-27 18:05:04 / mkvmerge v15.0.0 ('Duel with the Devil') 64-bit 2018-11-27 18:05:04 / UTC 2018-11-26T05:46:41Z
    FromStats_BitRate                        : 62528
    FromStats_Duration                       : 01:35:15.540000000
    FromStats_FrameCount                     : 3204
    FromStats_StreamSize                     : 44673152

    Text #2
    ID                                       : 5
    Format                                   : PGS
    Muxing mode                              : zlib
    Codec ID                                 : S_HDMV/PGS
    Codec ID/Info                            : Picture based subtitle format used on BDs/HD-DVDs
    Language                                 : Spanish
    Default                                  : No
    Forced                                   : No
    Statistics Tags Issue                    : mkvmerge v15.0.0 ('Duel with the Devil') 64-bit 2018-11-27 18:05:04 / mkvmerge v15.0.0 ('Duel with the Devil') 64-bit 2018-11-27 18:05:04 / UTC 2018-11-26T05:46:41Z
    FromStats_BitRate                        : 50348
    FromStats_Duration                       : 01:31:49.709000000
    FromStats_FrameCount                     : 2582
    FromStats_StreamSize                     : 34675959

    Menu
    00:00:00.000                             : :Chapter 1
    00:06:32.601                             : :Chapter 2
    00:11:50.668                             : :Chapter 3
    00:18:19.307                             : :Chapter 4
    00:24:39.311                             : :Chapter 5
    00:32:56.641                             : :Chapter 6
    00:37:39.799                             : :Chapter 7
    00:44:28.040                             : :Chapter 8
    00:47:27.178                             : :Chapter 9
    00:54:26.597                             : :Chapter 10
    01:00:20.575                             : :Chapter 11
    01:06:50.673                             : :Chapter 12
    01:12:46.904                             : :Chapter 13
    01:16:54.652                             : :Chapter 14
    01:21:07.404                             : :Chapter 15
    01:28:48.615                             : :Chapter 16

     

  • Peso: 5.63 GiB

Sinopsis

Collin está en los últimos días de libertad condicional. Siempre a su lado está su mejor amigo, Miles, que tiene un don para buscar problemas. Cuando la oportunidad de Collin de empezar de cero se ve interrumpida por un toque de queda que pierde, su amistad con Miles será puesta a prueba.

Ficha técnica

Video trailer de la película

Enlaces de descarga

Rip de Bluray

Descargar Blindspotting (2018) Full 1080p Latino




Aportes de DPeliculasHDmega la pass es:dpeliculashdmega.org Aportes de CinemaniaHD la pass es:cinemaniahdd.com

Películas relacionadas

  • Godzilla (2014) 1080p Latino

    2014
    Godzilla (2014) 1080p Latino

    0.0 2h 3m 2014

    Descargar Godzilla (2014) 1080p Latino, Mega, Google Drive, Torrent. Gareth Edwards dirige este "reboot",...

    Director: Jessica Clothier

    Género: Acción

    Actores: Yuki Morita

  • Godzilla (2014) Full 1080p Latino

    2014
    Godzilla (2014) Full 1080p Latino

    4.2 2h 3m 2014

    Descargar Godzilla (2014) Full 1080p Latino, Mega, Google Drive, Torrent. Gareth Edwards dirige este...

    Director: Jessica Clothier

    Género: Acción

    Actores: Yuki Morita

  • Un pequeño favor (2018) Full 1080p Latino

    2018
    Un pequeño favor (2018) Full 1080p Latino

    5.0 1h 57m 2018

    Descargar Un pequeño favor (2018) Full 1080p Latino, Mega, Google Drive, Torrent. Stephanie es una joven...

    Director: Paul Feig

    Género: Crimen

    Actores: Zach Smadu

Comentarios 0