×

¿Problemas para descargar con Mozilla, EDGE? Deshabilita la opción "Abrir vinculos en una pestaña nueva" tal como lo muestra ésta imagen.

Mi Novio Atomico (1999) REMUX 1080p Latino-CMHDD

1.019 vistas

Información de Mi Novio Atomico (1999) REMUX 1080p Latino-CMHDD

Datos de la película

  • Calidad: Full 1080p
  • Audio: Español Latino AC3 2.0 BLURAY - Ingles DTS 5.1 BLURAY
  • Subtitulos: Español Latino PGS - Ingles PGS
  • Resolución: 1920x1080p
  • Formato: MKV
  • Codec: H.264
  • Encoder: Dracarys | CinefiloCool
  • Mediainfo: Clic para Mostrar Datos Ver
  • Mi Novio Atomico (1999) REMUX 1080p Latino-CMHDD.mkv
    Format                      : Matroska
    Format version              : Version 4
    File size                   : 23.8 GiB
    Duration                    : 1 h 52 min
    Overall bit rate mode       : Variable
    Overall bit rate            : 30.5 Mb/s
    Movie name                  : Blast From The Past (1999) CinemaniaHDD.Net
    Encoded date                : UTC 2023-06-27 04:37:32
    Writing application         : mkvmerge v56.1.0 ('My Friend') 64-bit
    Writing library             : libebml v1.4.2 + libmatroska v1.6.4
    Attachments                 : CINEMANIAHD.png

    Video
    ID                          : 1
    Format                      : AVC
    Format/Info                 : Advanced Video Codec
    Format profile              : High@L4.1
    Format settings             : CABAC / 2 Ref Frames
    Format settings, CABAC      : Yes
    Format settings, Reference  : 2 frames
    Format settings, GOP        : M=1, N=10
    Codec ID                    : V_MPEG4/ISO/AVC
    Duration                    : 1 h 52 min
    Bit rate mode               : Variable
    Bit rate                    : 27.9 Mb/s
    Width                       : 1 920 pixels
    Height                      : 1 080 pixels
    Display aspect ratio        : 16:9
    Frame rate mode             : Constant
    Frame rate                  : 23.976 (24000/1001) FPS
    Color space                 : YUV
    Chroma subsampling          : 4:2:0
    Bit depth                   : 8 bits
    Scan type                   : Progressive
    Bits/(Pixel*Frame)          : 0.562
    Stream size                 : 21.9 GiB (92%)
    Title                       : REMUX HD1080p [CinemaniaHDD]
    Language                    : English
    Default                     : Yes
    Forced                      : Yes

    Audio #1
    ID                          : 2
    Format                      : AC-3
    Format/Info                 : Audio Coding 3
    Commercial name             : Dolby Digital
    Codec ID                    : A_AC3
    Duration                    : 1 h 52 min
    Bit rate mode               : Constant
    Bit rate                    : 192 kb/s
    Channel(s)                  : 2 channels
    Channel layout              : L R
    Sampling rate               : 48.0 kHz
    Frame rate                  : 31.250 FPS (1536 SPF)
    Compression mode            : Lossy
    Stream size                 : 154 MiB (1%)
    Title                       : Español Latino [CinemaniaHDD]
    Language                    : Spanish
    Service kind                : Complete Main
    Default                     : Yes
    Forced                      : Yes

    Audio #2
    ID                          : 3
    Format                      : DTS XLL
    Format/Info                 : Digital Theater Systems
    Commercial name             : DTS-HD Master Audio
    Codec ID                    : A_DTS
    Duration                    : 1 h 52 min
    Bit rate mode               : Variable
    Bit rate                    : 2 304 kb/s
    Channel(s)                  : 6 channels
    Channel layout              : C L R Ls Rs LFE
    Sampling rate               : 48.0 kHz
    Frame rate                  : 93.750 FPS (512 SPF)
    Bit depth                   : 24 bits
    Compression mode            : Lossless
    Stream size                 : 1.80 GiB (8%)
    Title                       : Ingles [CinemaniaHDD]
    Language                    : English
    Default                     : No
    Forced                      : No

    Text #1
    ID                          : 4
    Format                      : PGS
    Muxing mode                 : zlib
    Codec ID                    : S_HDMV/PGS
    Codec ID/Info               : Picture based subtitle format used on BDs/HD-DVDs
    Duration                    : 1 h 51 min
    Bit rate                    : 33.8 kb/s
    Count of elements           : 3002
    Stream size                 : 27.0 MiB (0%)
    Title                       : Español-PGS [CinemaniaHDD]
    Language                    : Spanish
    Default                     : No
    Forced                      : No

    Text #2
    ID                          : 5
    Format                      : PGS
    Muxing mode                 : zlib
    Codec ID                    : S_HDMV/PGS
    Codec ID/Info               : Picture based subtitle format used on BDs/HD-DVDs
    Duration                    : 1 h 50 min
    Bit rate                    : 39.3 kb/s
    Count of elements           : 3286
    Stream size                 : 31.1 MiB (0%)
    Title                       : Ingles [CinemaniaHDD]
    Language                    : English
    Default                     : No
    Forced                      : No

    Text #3
    ID                          : 6
    Format                      : UTF-8
    Codec ID                    : S_TEXT/UTF8
    Codec ID/Info               : UTF-8 Plain Text
    Duration                    : 40 min 46 s
    Bit rate                    : 2 b/s
    Count of elements           : 28
    Stream size                 : 788 Bytes (0%)
    Title                       : Forzados-SRT [CinemaniaHDD]
    Language                    : Spanish
    Default                     : Yes
    Forced                      : Yes

    Text #4
    ID                          : 7
    Format                      : UTF-8
    Codec ID                    : S_TEXT/UTF8
    Codec ID/Info               : UTF-8 Plain Text
    Duration                    : 1 h 46 min
    Bit rate                    : 59 b/s
    Count of elements           : 1764
    Stream size                 : 46.5 KiB (0%)
    Title                       : Español-SRT [CinemaniaHDD]
    Language                    : Spanish
    Default                     : No
    Forced                      : No

    Menu
    00:00:00.000                : The Party
    00:03:39.761                : It's Time
    00:08:09.113                : Going Under
    00:12:36.255                : 35 Year Lock
    00:20:34.942                : Happy Birthday
    00:23:26.446                : Just Open the Door and Go Up
    00:25:31.071                : I Come in Peace
    00:29:38.693                : Beware the Adult Bookstore
    00:34:34.989                : Adam Meets the Mutants
    00:39:07.178                : Grocery Shopping
    00:41:17.391                : Adam Encounters Eve
    00:47:15.249                : Welcome to the Holiday Inn
    00:52:50.375                : Eve For Hire
    00:53:59.569                : Two Weeks to a Non-Mutant Wife
    00:57:31.364                : Brining Adam Home
    01:03:00.777                : Getting Up-to-Date
    01:05:08.029                : You Have to See it to Understand
    01:09:28.539                : Wife Hunting
    01:19:38.148                : Adam Tells the Scary Truth
    01:28:18.584                : Off to the Funny Farm
    01:33:00.241                : Searching For Mr. Poute
    01:40:17.553                : Rebuilding
    01:43:10.601                : The New House
    01:47:27.566                : Credits

  • Peso: 23.8 GiB

Sinopsis

Descargar Mi Novio Atomico (1999) REMUX 1080p Latino. En 1962, Calvin Webber (Christopher Walken), un brillante aunque algo paranoico científico, vivía con su esposa Helen (Sissy Spacek) en Los Ángeles. En plena crisis de los misiles de Cuba, un avión sufre un accidente cerca de la casa de los Webber, que, convencidos de que ha estallado una guerra nuclear, se guarecen en un refugio construido por Calvin. 35 años después su hijo Adam (Brendan Fraser), nacido en esa especie de cápsula temporal, sale a la superficie para comprobar si la Tierra sigue siendo apta para la vida humana.

RESUBIDA!!!

Ficha técnica

Video trailer de la película

Enlaces de descarga

Rip de Bluray

Descargar Mi Novio Atomico (1999) REMUX 1080p Latino-CMHDD


Aportes de DPeliculasHDmega la pass es:dpeliculashdmega.org Aportes de CinemaniaHD la pass es:cinemaniahdd.com Aportes recientes:cinemaniahdd.net
Guardado en : Ciencia ficción , Comedia , Drama , Remux , Romance

Películas relacionadas

descargar Mi Novio Atomico (1999) REMUX 1080p Latino-CMHDD Full 1080p 1080p gratis, Mi Novio Atomico (1999) REMUX 1080p Latino-CMHDD Full 1080p mega 1 link, Mi Novio Atomico (1999) REMUX 1080p Latino-CMHDD Full 1080p pelicula completa, descargar Mi Novio Atomico (1999) REMUX 1080p Latino-CMHDD Full 1080p gratis en mega.

Mi Novio Atomico (1999) REMUX 1080p Latino-CMHDD pelicula full hd, Mi Novio Atomico (1999) REMUX 1080p Latino-CMHDD mega latino, Mi Novio Atomico (1999) REMUX 1080p Latino-CMHDD 4k latino, Mi Novio Atomico (1999) REMUX 1080p Latino-CMHDD pelicula completa, Mi Novio Atomico (1999) REMUX 1080p Latino-CMHDD descargar gratis, descargar Mi Novio Atomico (1999) REMUX 1080p Latino-CMHDD pelicula latino, Mi Novio Atomico (1999) REMUX 1080p Latino-CMHDD 1 link mega, Mi Novio Atomico (1999) REMUX 1080p Latino-CMHDD 1 link google drive, Mi Novio Atomico (1999) REMUX 1080p Latino-CMHDD hd 1080p latino.
Comentarios 0