×

¿Problemas para descargar con Mozilla, EDGE? Deshabilita la opción "Abrir vinculos en una pestaña nueva" tal como lo muestra ésta imagen.

Blast from the Past (1999) REMUX 1080p Latino – CMHDD

302 vistas

Información de Blast from the Past (1999) REMUX 1080p Latino – CMHDD

Datos de la película

  • Calidad: Full 1080p
  • Audio: Español Latino AC3 2.0 BLURAY - Ingles DTS 5.1 BLURAY
  • Subtitulos: Español Latino PGS
  • Resolución: 1920x1080p
  • Formato: MKV
  • Codec: H.264
  • Encoder: Dracarys
  • Mediainfo: Clic para Mostrar Datos Ver
  • Format                      : Matroska
    Format version              : Version 4
    File size                   : 23.8 GiB
    Duration                    : 1 h 52 min
    Overall bit rate mode       : Variable
    Overall bit rate            : 30.4 Mb/s
    Movie name                  : Blast from the Past (1999) REMUX 1080p Latino - CMHDD
    Encoded date                : UTC 2021-07-12 17:09:10
    Writing application         : mkvmerge v56.1.0 ('My Friend') 64-bit
    Writing library             : libebml v1.4.2 + libmatroska v1.6.4
    Cover                       : Yes
    Attachments                 : cover.jpg

    Video
    ID                          : 1
    ID in the original source m : 4113 (0x1011)
    Format                      : AVC
    Format/Info                 : Advanced Video Codec
    Format profile              : High@L4.1
    Format settings             : CABAC / 2 Ref Frames
    Format settings, CABAC      : Yes
    Format settings, Reference  : 2 frames
    Format settings, GOP        : M=1, N=10
    Codec ID                    : V_MPEG4/ISO/AVC
    Duration                    : 1 h 52 min
    Bit rate mode               : Variable
    Bit rate                    : 27.9 Mb/s
    Width                       : 1 920 pixels
    Height                      : 1 080 pixels
    Display aspect ratio        : 16:9
    Frame rate mode             : Constant
    Frame rate                  : 23.976 (24000/1001) FPS
    Color space                 : YUV
    Chroma subsampling          : 4:2:0
    Bit depth                   : 8 bits
    Scan type                   : Progressive
    Bits/(Pixel*Frame)          : 0.562
    Stream size                 : 21.9 GiB (92%)
    Default                     : Yes
    Forced                      : No
    Original source medium      : Blu-ray

    Audio #1
    ID                          : 2
    ID in the original source m : 4352 (0x1100)
    Format                      : DTS XLL
    Format/Info                 : Digital Theater Systems
    Commercial name             : DTS-HD Master Audio
    Codec ID                    : A_DTS
    Duration                    : 1 h 52 min
    Bit rate mode               : Variable
    Bit rate                    : 2 304 kb/s
    Channel(s)                  : 6 channels
    Channel layout              : C L R Ls Rs LFE
    Sampling rate               : 48.0 kHz
    Frame rate                  : 93.750 FPS (512 SPF)
    Bit depth                   : 24 bits
    Compression mode            : Lossless
    Stream size                 : 1.80 GiB (8%)
    Language                    : English
    Default                     : No
    Forced                      : No
    Original source medium      : Blu-ray

    Audio #2
    ID                          : 3
    ID in the original source m : 4354 (0x1102)
    Format                      : AC-3
    Format/Info                 : Audio Coding 3
    Commercial name             : Dolby Digital
    Codec ID                    : A_AC3
    Duration                    : 1 h 52 min
    Bit rate mode               : Constant
    Bit rate                    : 192 kb/s
    Channel(s)                  : 2 channels
    Channel layout              : L R
    Sampling rate               : 48.0 kHz
    Frame rate                  : 31.250 FPS (1536 SPF)
    Compression mode            : Lossy
    Stream size                 : 154 MiB (1%)
    Language                    : Spanish
    Service kind                : Complete Main
    Default                     : Yes
    Forced                      : No
    Original source medium      : Blu-ray

    Text #1
    ID                          : 4
    ID in the original source m : 4611 (0x1203)
    Format                      : PGS
    Muxing mode                 : zlib
    Codec ID                    : S_HDMV/PGS
    Codec ID/Info               : Picture based subtitle format used on BDs/HD-DVDs
    Duration                    : 1 h 51 min
    Bit rate                    : 33.8 kb/s
    Count of elements           : 3002
    Stream size                 : 27.0 MiB (0%)
    Language                    : Spanish
    Default                     : No
    Forced                      : No
    Original source medium      : Blu-ray

    Text #2
    ID                          : 5
    ID in the original source m : 4614 (0x1206)
    Format                      : PGS
    Muxing mode                 : zlib
    Codec ID                    : S_HDMV/PGS
    Codec ID/Info               : Picture based subtitle format used on BDs/HD-DVDs
    Duration                    : 1 h 43 min
    Bit rate                    : 3 108 b/s
    Count of elements           : 266
    Stream size                 : 2.29 MiB (0%)
    Language                    : Spanish
    Default                     : No
    Forced                      : No
    Original source medium      : Blu-ray

    Menu
    00:00:00.000                : Chapter 01
    00:03:39.761                : Chapter 02
    00:08:09.113                : Chapter 03
    00:12:36.255                : Chapter 04
    00:20:34.942                : Chapter 05
    00:23:26.446                : Chapter 06
    00:25:31.071                : Chapter 07
    00:29:38.693                : Chapter 08
    00:34:34.989                : Chapter 09
    00:39:07.178                : Chapter 10
    00:41:17.391                : Chapter 11
    00:47:15.249                : Chapter 12
    00:52:50.375                : Chapter 13
    00:53:59.569                : Chapter 14
    00:57:31.364                : Chapter 15
    01:03:00.777                : Chapter 16
    01:05:08.029                : Chapter 17
    01:09:28.539                : Chapter 18
    01:19:38.148                : Chapter 19
    01:28:18.584                : Chapter 20
    01:33:00.241                : Chapter 21
    01:40:17.553                : Chapter 22
    01:43:10.601                : Chapter 23
    01:47:27.566                : Chapter 24

  • Peso: 23.8 GiB

Sinopsis

En 1962, Calvin Webber (Christopher Walken), un brillante aunque algo paranoico científico, vivía con su esposa Helen (Sissy Spacek) en Los Ángeles. En plena crisis de los misiles de Cuba, un avión sufre un accidente cerca de la casa de los Webber, que, convencidos de que ha estallado una guerra nuclear, se guarecen en un refugio construido por Calvin. 35 años después su hijo Adam (Brendan Fraser), nacido en esa especie de cápsula temporal, sale a la superficie para comprobar si la Tierra sigue siendo apta para la vida humana.

Ficha técnica

Video trailer de la película

Enlaces de descarga

Rip de Bluray

Descargar Blast from the Past (1999) REMUX 1080p Latino – CMHDD


Aportes de DPeliculasHDmega la pass es:dpeliculashdmega.org Aportes de CinemaniaHD la pass es:cinemaniahdd.com
Guardado en : Ciencia ficción , Comedia , Drama , Romance

Películas relacionadas

  • Tren Bala (2022) WEB-DL 4K UHD HDR Latino

    Tren Bala (2022) WEB-DL 4K UHD HDR Latino

    2022
    Tren Bala (2022) WEB-DL 4K UHD HDR Latino

    2h 7m 2022

    Descargar Tren Bala (2022) WEB-DL 4K UHD HDR Latino. El desafortunado asesino "Catarina" está decidido...

    Director: Paul Barry

    Género: 4K HDR

    Actores: Zooey Miyoshi

  • Tren Bala (2022) AMZN WEB-DL 1080p Latino

    Tren Bala (2022) AMZN WEB-DL 1080p Latino

    2022
    Tren Bala (2022) AMZN WEB-DL 1080p Latino

    2h 7m 2022

    Descargar Tren Bala (2022) AMZN WEB-DL 1080p Latino. Cinco asesinos a sueldo se encuentran a bordo de...

    Director: Paul Barry

    Género: Acción

    Actores: Zooey Miyoshi

  • Infiniti (2022) Primera Temporada WEB-DL 1080p Latino

    Infiniti (2022) Primera Temporada WEB-DL 1080p Latino

    2022
    Infiniti (2022) Primera Temporada WEB-DL 1080p Latino

    0h 52m 2022

    La ISS, la Estación Espacial Internacional se ha quedado en silencio. La tripulación está en peligro....

    Director: Stéphane Pannetier

    Género: Drama

    Actores: Vlad Ivanov

  • Rick y Morty (2022) Temporada 6 WEB-DL 1080p Latino

    Rick y Morty (2022) Temporada 6 WEB-DL 1080p Latino

    2013
    Rick y Morty (2022) Temporada 6 WEB-DL 1080p Latino

    0h 22m 2013

    Comedia animada que narra las aventuras de un científico loco Rick Sánchez, que regresa después de...

    Director: Justin Roiland

    Género: Action & Adventure

    Actores: Spencer Grammer

descargar Blast from the Past (1999) REMUX 1080p Latino – CMHDD Full 1080p 1080p gratis, Blast from the Past (1999) REMUX 1080p Latino – CMHDD Full 1080p mega 1 link, Blast from the Past (1999) REMUX 1080p Latino – CMHDD Full 1080p pelicula completa, descargar Blast from the Past (1999) REMUX 1080p Latino – CMHDD Full 1080p gratis en mega.

Blast from the Past (1999) REMUX 1080p Latino – CMHDD pelicula full hd, Blast from the Past (1999) REMUX 1080p Latino – CMHDD mega latino, Blast from the Past (1999) REMUX 1080p Latino – CMHDD 4k latino, Blast from the Past (1999) REMUX 1080p Latino – CMHDD pelicula completa, Blast from the Past (1999) REMUX 1080p Latino – CMHDD descargar gratis, descargar Blast from the Past (1999) REMUX 1080p Latino – CMHDD pelicula latino, Blast from the Past (1999) REMUX 1080p Latino – CMHDD 1 link mega, Blast from the Past (1999) REMUX 1080p Latino – CMHDD 1 link google drive, Blast from the Past (1999) REMUX 1080p Latino – CMHDD hd 1080p latino.
Comentarios 0