Blancanieves y los siete enanos (1937) REMUX 1080p Latino – CMHDD

14 vistas
1 estrella2 estrellas3 estrellas4 estrellas5 estrellas (1 votos, promedio: 5,00 de 5)
Cargando…

Información de Blancanieves y los siete enanos (1937) REMUX 1080p Latino – CMHDD

Datos de la película

  • Calidad: Full 1080p
  • Audio: Español Latino AC3 5.1 BLURAY - Ingles DTS 5.1 BLURAY
  • Subtitulos: Español Latino SRT- FORZADOS SRT
  • Resolución: 1920x1080p
  • Formato: MKV
  • Codec: H.264
  • Encoder: Dracarys
  • Mediainfo: Clic para Mostrar Datos Ver
  • Format                      : Matroska
    Format version              : Version 4
    File size                   : 16.5 GiB
    Duration                    : 1 h 23 min
    Overall bit rate mode       : Variable
    Overall bit rate            : 28.4 Mb/s
    Movie name                  : Blancanieves y los siete enanos (1937) REMUX 1080p Latino - CMHDD
    Encoded date                : UTC 2020-06-24 21:23:04
    Writing application         : mkvmerge v46.0.0 ('No Deeper Escape') 64-bit
    Writing library             : libebml v1.3.10 + libmatroska v1.5.2

    Video
    ID                          : 1
    Format                      : AVC
    Format/Info                 : Advanced Video Codec
    Format profile              : High@L4.1
    Format settings             : Frame tripling / CABAC / 4 Ref Frames
    Format settings, CABAC      : Yes
    Format settings, Reference  : 4 frames
    Frame mode                  : Frame tripling
    Codec ID                    : V_MPEG4/ISO/AVC
    Duration                    : 1 h 23 min
    Bit rate mode               : Variable
    Bit rate                    : 24.0 Mb/s
    Maximum bit rate            : 34.4 Mb/s
    Width                       : 1 920 pixels
    Height                      : 1 080 pixels
    Display aspect ratio        : 16:9
    Frame rate mode             : Constant
    Frame rate                  : 23.976 (24000/1001) FPS
    Original frame rate         : 7.992 (8000/1001) FPS
    Color space                 : YUV
    Chroma subsampling          : 4:2:0
    Bit depth                   : 8 bits
    Scan type                   : Progressive
    Bits/(Pixel*Frame)          : 0.483
    Stream size                 : 14.0 GiB (85%)
    Default                     : Yes
    Forced                      : No

    Audio #1
    ID                          : 2
    Format                      : AC-3
    Format/Info                 : Audio Coding 3
    Commercial name             : Dolby Digital
    Codec ID                    : A_AC3
    Duration                    : 1 h 23 min
    Bit rate mode               : Constant
    Bit rate                    : 640 kb/s
    Channel(s)                  : 6 channels
    Channel layout              : L R C LFE Ls Rs
    Sampling rate               : 48.0 kHz
    Frame rate                  : 31.250 FPS (1536 SPF)
    Compression mode            : Lossy
    Stream size                 : 381 MiB (2%)
    Language                    : Spanish
    Service kind                : Complete Main
    Default                     : Yes
    Forced                      : No

    Audio #2
    ID                          : 3
    Format                      : DTS XLL
    Format/Info                 : Digital Theater Systems
    Commercial name             : DTS-HD Master Audio
    Codec ID                    : A_DTS
    Duration                    : 1 h 23 min
    Bit rate mode               : Variable
    Bit rate                    : 3 733 kb/s
    Channel(s)                  : 8 channels
    Channel layout              : C L R LFE Lb Rb Lss Rss
    Sampling rate               : 48.0 kHz
    Frame rate                  : 93.750 FPS (512 SPF)
    Bit depth                   : 24 bits
    Compression mode            : Lossless
    Stream size                 : 2.17 GiB (13%)
    Language                    : English
    Default                     : No
    Forced                      : No

    Text #1
    ID                          : 4
    Format                      : UTF-8
    Codec ID                    : S_TEXT/UTF8
    Codec ID/Info               : UTF-8 Plain Text
    Duration                    : 1 h 22 min
    Bit rate                    : 36 b/s
    Count of elements           : 787
    Stream size                 : 21.8 KiB (0%)
    Language                    : Spanish
    Default                     : No
    Forced                      : No

    Text #2
    ID                          : 5
    Format                      : PGS
    Muxing mode                 : zlib
    Codec ID                    : S_HDMV/PGS
    Codec ID/Info               : Picture based subtitle format used on BDs/HD-DVDs
    Duration                    : 1 h 22 min
    Bit rate                    : 22.8 kb/s
    Count of elements           : 1574
    Stream size                 : 13.5 MiB (0%)
    Language                    : Spanish
    Default                     : No
    Forced                      : No

    Text #3
    ID                          : 6
    Format                      : UTF-8
    Codec ID                    : S_TEXT/UTF8
    Codec ID/Info               : UTF-8 Plain Text
    Duration                    : 1 h 19 min
    Bit rate                    : 0 b/s
    Count of elements           : 10
    Stream size                 : 329 Bytes (0%)
    Title                       : Forzados
    Language                    : Spanish
    Default                     : Yes
    Forced                      : No

    Text #4
    ID                          : 7
    Format                      : PGS
    Muxing mode                 : zlib
    Codec ID                    : S_HDMV/PGS
    Codec ID/Info               : Picture based subtitle format used on BDs/HD-DVDs
    Duration                    : 1 h 19 min
    Bit rate                    : 337 b/s
    Count of elements           : 20
    Stream size                 : 196 KiB (0%)
    Title                       : Forzados
    Language                    : Spanish
    Default                     : No
    Forced                      : No

  • Peso: 16.5 GiB

Sinopsis

La malvada madrastra de Blancanieves decide deshacerse de ella porque no puede soportar que la belleza de la joven sea superior a la suya. Sin embargo, Blancanieves consigue salvarse y se refugia en la cabaña de los siete enanitos. A pesar de todo, su cruel madrastra consigue encontrarla y la envenena con una manzana. Pero la princesa no está muerta, sólo dormida, a la espera de que un príncipe azul la rescate.

Ficha técnica

Video trailer de la película

Enlaces de descarga

Rip de Bluray

Descargar Blancanieves y los siete enanos (1937) REMUX 1080p Latino – CMHDD




Aportes de DPeliculasHDmega la pass es:dpeliculashdmega.org Aportes de CinemaniaHD la pass es:cinemaniahdd.com
Guardado en : Animación , Familia , Fantasía , Remux

Películas relacionadas

  • Días De Trueno (1990) REMUX 1080p Latino

    Días De Trueno (1990) REMUX 1080p Latino

    1990
    Días De Trueno (1990) REMUX 1080p Latino

    0.0 1h 47m 1990

    Descargar Días De Trueno (1990) REMUX 1080p Latino. Cole Trickle es un joven temerario que busca en...

    Director: Tony Scott

    Género: Acción

    Actores: Tom Cruise

  • Trolls (2016) 4K UHD HDR Latino

    Trolls (2016) 4K UHD HDR Latino

    2016
    Trolls (2016) 4K UHD HDR Latino

    0.0 1h 35m 2016

    Descargar Trolls (2016) 4K UHD HDR Latino. Adorable y amable, a los trolls les encanta jugar. Pero un...

    Director: Walt Dohrn

    Género: 4K HDR

    Actores: Zooey Deschanel

  • Trolls (2016) 1080p Latino

    Trolls (2016) 1080p Latino

    2016
    Trolls (2016) 1080p Latino

    4.2 0h 0m 2016

    Descargar Trolls (2016) 1080p Latino. Adorable y amable, a los trolls les encanta jugar. Pero un día,...

    Director: Walt Dohrn

    Género: Animación

    Actores: Zooey Deschanel

  • Trolls (2016) Full HD 1080p Latino

    Trolls (2016) Full HD 1080p Latino

    2016
    Trolls (2016) Full HD 1080p Latino

    4.5 1h 35m 2016

    Descargar Trolls (2016) Full HD 1080p Latino. Adorable y amable, a los trolls les encanta jugar. Pero...

    Director: Walt Dohrn

    Género: Animación

    Actores: Zooey Deschanel

  • Trolls (2016) REMUX 1080p Latino

    Trolls (2016) REMUX 1080p Latino

    2016
    Trolls (2016) REMUX 1080p Latino

    5.0 1h 35m 2016

    Descargar Trolls (2016) REMUX 1080p Latino. Adorable y amable, a los trolls les encanta jugar. Pero un...

    Director: Walt Dohrn

    Género: Animación

    Actores: Zooey Deschanel

Comentarios 0