×

¿Problemas para descargar con Mozilla, EDGE? Deshabilita la opción "Abrir vinculos en una pestaña nueva" tal como lo muestra ésta imagen.

Blancanieves y los siete enanos (1937) HD 1080p Latino – CMHDD

437 vistas

Información de Blancanieves y los siete enanos (1937) HD 1080p Latino – CMHDD

Datos de la película

  • Calidad: 1080p
  • Audio: Español Latino AC3 5.1 BLURAY - Ingles AC3 5.1 BLURAY
  • Subtitulos: Español Latino SRT- FORZADOS SRT
  • Resolución: 1448x1080p
  • Formato: MKV
  • Codec: H.264
  • Encoder: Dracarrys
  • Mediainfo: Clic para Mostrar Datos Ver
  • Format                      : Matroska
    Format version              : Version 4
    File size                   : 2.77 GiB
    Duration                    : 1 h 23 min
    Overall bit rate            : 4 772 kb/s
    Movie name                  : Blancanieves y los siete enanos (1937) HD 1080p Latino - CMHDD
    Encoded date                : UTC 2020-06-24 21:34:49
    Writing application         : mkvmerge v46.0.0 ('No Deeper Escape') 64-bit
    Writing library             : libebml v1.3.10 + libmatroska v1.5.2

    Video
    ID                          : 1
    Format                      : AVC
    Format/Info                 : Advanced Video Codec
    Format profile              : High@L4.1
    Format settings             : CABAC / 5 Ref Frames
    Format settings, CABAC      : Yes
    Format settings, Reference  : 5 frames
    Codec ID                    : V_MPEG4/ISO/AVC
    Duration                    : 1 h 23 min
    Bit rate                    : 3 500 kb/s
    Width                       : 1 448 pixels
    Height                      : 1 080 pixels
    Display aspect ratio        : 4:3
    Frame rate mode             : Constant
    Frame rate                  : 23.976 (24000/1001) FPS
    Color space                 : YUV
    Chroma subsampling          : 4:2:0
    Bit depth                   : 8 bits
    Scan type                   : Progressive
    Bits/(Pixel*Frame)          : 0.093
    Stream size                 : 2.03 GiB (73%)
    Writing library             : x264 core 157 r2935 545de2f
    Encoding settings           : cabac=1 / ref=5 / deblock=1:0:0 / analyse=0x3:0x113 / me=hex / subme=8 / psy=1 / psy_rd=1.00:0.00 / mixed_ref=1 / me_range=16 / chroma_me=1 / trellis=2 / 8x8dct=1 / cqm=0 / deadzone=21,11 / fast_pskip=1 / chroma_qp_offset=-2 / threads=24 / lookahead_threads=4 / sliced_threads=0 / nr=0 / decimate=1 / interlaced=0 / bluray_compat=0 / constrained_intra=0 / bframes=3 / b_pyramid=2 / b_adapt=1 / b_bias=0 / direct=3 / weightb=1 / open_gop=0 / weightp=2 / keyint=240 / keyint_min=24 / scenecut=40 / intra_refresh=0 / rc_lookahead=50 / rc=abr / mbtree=1 / bitrate=3500 / ratetol=1.0 / qcomp=0.60 / qpmin=0 / qpmax=69 / qpstep=4 / vbv_maxrate=62500 / vbv_bufsize=78125 / nal_hrd=none / filler=0 / ip_ratio=1.40 / aq=1:1.00
    Default                     : Yes
    Forced                      : No
    Color range                 : Limited
    Color primaries             : BT.709
    Transfer characteristics    : BT.709
    Matrix coefficients         : BT.709

    Audio #1
    ID                          : 2
    Format                      : AC-3
    Format/Info                 : Audio Coding 3
    Commercial name             : Dolby Digital
    Codec ID                    : A_AC3
    Duration                    : 1 h 23 min
    Bit rate mode               : Constant
    Bit rate                    : 640 kb/s
    Channel(s)                  : 6 channels
    Channel layout              : L R C LFE Ls Rs
    Sampling rate               : 48.0 kHz
    Frame rate                  : 31.250 FPS (1536 SPF)
    Compression mode            : Lossy
    Stream size                 : 381 MiB (13%)
    Language                    : Spanish
    Service kind                : Complete Main
    Default                     : Yes
    Forced                      : No

    Audio #2
    ID                          : 3
    Format                      : AC-3
    Format/Info                 : Audio Coding 3
    Commercial name             : Dolby Digital
    Codec ID                    : A_AC3
    Duration                    : 1 h 23 min
    Bit rate mode               : Constant
    Bit rate                    : 640 kb/s
    Channel(s)                  : 6 channels
    Channel layout              : L R C LFE Ls Rs
    Sampling rate               : 48.0 kHz
    Frame rate                  : 31.250 FPS (1536 SPF)
    Compression mode            : Lossy
    Delay relative to video     : -5 ms
    Stream size                 : 381 MiB (13%)
    Language                    : English
    Service kind                : Complete Main
    Default                     : No
    Forced                      : No

    Text #1
    ID                          : 4
    Format                      : UTF-8
    Codec ID                    : S_TEXT/UTF8
    Codec ID/Info               : UTF-8 Plain Text
    Duration                    : 1 h 22 min
    Bit rate                    : 36 b/s
    Count of elements           : 787
    Stream size                 : 21.8 KiB (0%)
    Language                    : Spanish
    Default                     : No
    Forced                      : No

    Text #2
    ID                          : 5
    Format                      : UTF-8
    Codec ID                    : S_TEXT/UTF8
    Codec ID/Info               : UTF-8 Plain Text
    Duration                    : 1 h 19 min
    Bit rate                    : 0 b/s
    Count of elements           : 10
    Stream size                 : 329 Bytes (0%)
    Title                       : Forzados
    Language                    : Spanish
    Default                     : Yes
    Forced                      : No

    Menu
    00:00:00.000                : :Chapter 1
    00:01:23.542                : :Chapter 2
    00:02:12.799                : :Chapter 3
    00:03:36.341                : :Chapter 4
    00:05:26.660                : :Chapter 5
    00:07:00.879                : :Chapter 6
    00:09:12.260                : :Chapter 7
    00:11:35.570                : :Chapter 8
    00:14:57.814                : :Chapter 9
    00:17:39.183                : :Chapter 10
    00:21:26.118                : :Chapter 11
    00:24:09.990                : :Chapter 12
    00:25:30.654                : :Chapter 13
    00:34:56.261                : :Chapter 14
    00:42:48.232                : :Chapter 15
    00:47:50.242                : :Chapter 16
    00:49:16.662                : :Chapter 17
    00:52:02.953                : :Chapter 18
    00:56:50.282                : :Chapter 19
    00:58:54.156                : :Chapter 20
    01:02:39.631                : :Chapter 21
    01:05:41.771                : :Chapter 22
    01:08:25.393                : :Chapter 23
    01:11:42.131                : :Chapter 24
    01:14:09.487                : :Chapter 25
    01:17:43.826                : :Chapter 26
    01:20:28.449                : :Chapter 27

  • Peso: 2.77 GiB

Sinopsis

La malvada madrastra de Blancanieves decide deshacerse de ella porque no puede soportar que la belleza de la joven sea superior a la suya. Sin embargo, Blancanieves consigue salvarse y se refugia en la cabaña de los siete enanitos. A pesar de todo, su cruel madrastra consigue encontrarla y la envenena con una manzana. Pero la princesa no está muerta, sólo dormida, a la espera de que un príncipe azul la rescate.

Ficha técnica

Video trailer de la película

Enlaces de descarga

Rip de Bluray

Descargar Blancanieves y los siete enanos (1937) HD 1080p Latino – CMHDD




Aportes de DPeliculasHDmega la pass es:dpeliculashdmega.org Aportes de CinemaniaHD la pass es:cinemaniahdd.com
Guardado en : Animación , Familia , Fantasía , HD 1080p

Películas relacionadas

descargar Blancanieves y los siete enanos (1937) HD 1080p Latino – CMHDD 1080p 1080p gratis, Blancanieves y los siete enanos (1937) HD 1080p Latino – CMHDD 1080p mega 1 link, Blancanieves y los siete enanos (1937) HD 1080p Latino – CMHDD 1080p pelicula completa, descargar Blancanieves y los siete enanos (1937) HD 1080p Latino – CMHDD 1080p gratis en mega.

Blancanieves y los siete enanos (1937) HD 1080p Latino – CMHDD pelicula full hd, Blancanieves y los siete enanos (1937) HD 1080p Latino – CMHDD mega latino, Blancanieves y los siete enanos (1937) HD 1080p Latino – CMHDD 4k latino, Blancanieves y los siete enanos (1937) HD 1080p Latino – CMHDD pelicula completa, Blancanieves y los siete enanos (1937) HD 1080p Latino – CMHDD descargar gratis, descargar Blancanieves y los siete enanos (1937) HD 1080p Latino – CMHDD pelicula latino, Blancanieves y los siete enanos (1937) HD 1080p Latino – CMHDD 1 link mega, Blancanieves y los siete enanos (1937) HD 1080p Latino – CMHDD 1 link google drive, Blancanieves y los siete enanos (1937) HD 1080p Latino – CMHDD hd 1080p latino.
Comentarios 0