Blancanieves y los siete enanos (1937) Full HD 1080p Latino – CMHDD

16 vistas
1 estrella2 estrellas3 estrellas4 estrellas5 estrellas (Ninguna valoración todavía)
Cargando…

Información de Blancanieves y los siete enanos (1937) Full HD 1080p Latino – CMHDD

Datos de la película

  • Calidad: Full 1080p
  • Audio: Español Latino AC3 5.1 BLURAY - Ingles DTS 5.1 BLURAY
  • Subtitulos: Español Latino SRT- FORZADOS SRT
  • Resolución: 1920x1080p
  • Formato: MKV
  • Codec: H.264
  • Encoder: Dracarys
  • Mediainfo: Clic para Mostrar Datos Ver
  • Format                      : Matroska
    Format version              : Version 4
    File size                   : 4.91 GiB
    Duration                    : 1 h 23 min
    Overall bit rate mode       : Variable
    Overall bit rate            : 8 445 kb/s
    Movie name                  : Blancanieves y los siete enanos (1937) Full HD 1080p Latino - CMHDD
    Encoded date                : UTC 2020-06-24 21:33:07
    Writing application         : mkvmerge v46.0.0 ('No Deeper Escape') 64-bit
    Writing library             : libebml v1.3.10 + libmatroska v1.5.2

    Video
    ID                          : 1
    Format                      : AVC
    Format/Info                 : Advanced Video Codec
    Format profile              : High@L4.1
    Format settings             : CABAC / 4 Ref Frames
    Format settings, CABAC      : Yes
    Format settings, Reference  : 4 frames
    Codec ID                    : V_MPEG4/ISO/AVC
    Duration                    : 1 h 23 min
    Bit rate                    : 4 061 kb/s
    Width                       : 1 920 pixels
    Height                      : 1 080 pixels
    Display aspect ratio        : 16:9
    Frame rate mode             : Constant
    Frame rate                  : 23.976 (24000/1001) FPS
    Color space                 : YUV
    Chroma subsampling          : 4:2:0
    Bit depth                   : 8 bits
    Scan type                   : Progressive
    Bits/(Pixel*Frame)          : 0.082
    Stream size                 : 2.36 GiB (48%)
    Writing library             : x264 core 157 r2935 545de2f
    Encoding settings           : cabac=1 / ref=4 / deblock=1:0:0 / analyse=0x3:0x133 / me=tesa / subme=11 / psy=1 / psy_rd=1.00:0.00 / mixed_ref=1 / me_range=24 / chroma_me=1 / trellis=2 / 8x8dct=1 / cqm=0 / deadzone=21,11 / fast_pskip=0 / chroma_qp_offset=-2 / threads=24 / lookahead_threads=6 / sliced_threads=0 / nr=0 / decimate=1 / interlaced=0 / bluray_compat=0 / constrained_intra=0 / bframes=16 / b_pyramid=2 / b_adapt=2 / b_bias=0 / direct=3 / weightb=1 / open_gop=0 / weightp=2 / keyint=240 / keyint_min=24 / scenecut=40 / intra_refresh=0 / rc_lookahead=60 / rc=crf / mbtree=1 / crf=20.0 / qcomp=0.60 / qpmin=0 / qpmax=69 / qpstep=4 / vbv_maxrate=62500 / vbv_bufsize=78125 / crf_max=0.0 / nal_hrd=none / filler=0 / ip_ratio=1.40 / aq=1:1.00
    Default                     : Yes
    Forced                      : No
    Color range                 : Limited
    Color primaries             : BT.709
    Transfer characteristics    : BT.709
    Matrix coefficients         : BT.709

    Audio #1
    ID                          : 2
    Format                      : AC-3
    Format/Info                 : Audio Coding 3
    Commercial name             : Dolby Digital
    Codec ID                    : A_AC3
    Duration                    : 1 h 23 min
    Bit rate mode               : Constant
    Bit rate                    : 640 kb/s
    Channel(s)                  : 6 channels
    Channel layout              : L R C LFE Ls Rs
    Sampling rate               : 48.0 kHz
    Frame rate                  : 31.250 FPS (1536 SPF)
    Compression mode            : Lossy
    Stream size                 : 381 MiB (8%)
    Language                    : Spanish
    Service kind                : Complete Main
    Default                     : Yes
    Forced                      : No

    Audio #2
    ID                          : 3
    Format                      : DTS XLL
    Format/Info                 : Digital Theater Systems
    Commercial name             : DTS-HD Master Audio
    Codec ID                    : A_DTS
    Duration                    : 1 h 23 min
    Bit rate mode               : Variable
    Bit rate                    : 3 733 kb/s
    Channel(s)                  : 8 channels
    Channel layout              : C L R LFE Lb Rb Lss Rss
    Sampling rate               : 48.0 kHz
    Frame rate                  : 93.750 FPS (512 SPF)
    Bit depth                   : 24 bits
    Compression mode            : Lossless
    Stream size                 : 2.17 GiB (44%)
    Language                    : English
    Default                     : No
    Forced                      : No

    Text #1
    ID                          : 4
    Format                      : UTF-8
    Codec ID                    : S_TEXT/UTF8
    Codec ID/Info               : UTF-8 Plain Text
    Duration                    : 1 h 22 min
    Bit rate                    : 36 b/s
    Count of elements           : 787
    Stream size                 : 21.8 KiB (0%)
    Language                    : Spanish
    Default                     : No
    Forced                      : No

    Text #2
    ID                          : 5
    Format                      : PGS
    Muxing mode                 : zlib
    Codec ID                    : S_HDMV/PGS
    Codec ID/Info               : Picture based subtitle format used on BDs/HD-DVDs
    Duration                    : 1 h 22 min
    Bit rate                    : 22.8 kb/s
    Count of elements           : 1574
    Stream size                 : 13.5 MiB (0%)
    Language                    : Spanish
    Default                     : No
    Forced                      : No

    Text #3
    ID                          : 6
    Format                      : UTF-8
    Codec ID                    : S_TEXT/UTF8
    Codec ID/Info               : UTF-8 Plain Text
    Duration                    : 1 h 19 min
    Bit rate                    : 0 b/s
    Count of elements           : 10
    Stream size                 : 329 Bytes (0%)
    Title                       : Forzados
    Language                    : Spanish
    Default                     : Yes
    Forced                      : No

    Text #4
    ID                          : 7
    Format                      : PGS
    Muxing mode                 : zlib
    Codec ID                    : S_HDMV/PGS
    Codec ID/Info               : Picture based subtitle format used on BDs/HD-DVDs
    Duration                    : 1 h 19 min
    Bit rate                    : 337 b/s
    Count of elements           : 20
    Stream size                 : 196 KiB (0%)
    Title                       : Forzados
    Language                    : Spanish
    Default                     : No
    Forced                      : No

    Menu
    00:00:00.000                : :Chapter 1
    00:01:23.542                : :Chapter 2
    00:02:12.799                : :Chapter 3
    00:03:36.341                : :Chapter 4
    00:05:26.660                : :Chapter 5
    00:07:00.879                : :Chapter 6
    00:09:12.260                : :Chapter 7
    00:11:35.570                : :Chapter 8
    00:14:57.814                : :Chapter 9
    00:17:39.183                : :Chapter 10
    00:21:26.118                : :Chapter 11
    00:24:09.990                : :Chapter 12
    00:25:30.654                : :Chapter 13
    00:34:56.261                : :Chapter 14
    00:42:48.232                : :Chapter 15
    00:47:50.242                : :Chapter 16
    00:49:16.662                : :Chapter 17
    00:52:02.953                : :Chapter 18
    00:56:50.282                : :Chapter 19
    00:58:54.156                : :Chapter 20
    01:02:39.631                : :Chapter 21
    01:05:41.771                : :Chapter 22
    01:08:25.393                : :Chapter 23
    01:11:42.131                : :Chapter 24
    01:14:09.487                : :Chapter 25
    01:17:43.826                : :Chapter 26
    01:20:28.449                : :Chapter 27

  • Peso: 4.91 GiB

Sinopsis

La malvada madrastra de Blancanieves decide deshacerse de ella porque no puede soportar que la belleza de la joven sea superior a la suya. Sin embargo, Blancanieves consigue salvarse y se refugia en la cabaña de los siete enanitos. A pesar de todo, su cruel madrastra consigue encontrarla y la envenena con una manzana. Pero la princesa no está muerta, sólo dormida, a la espera de que un príncipe azul la rescate.

Ficha técnica

Video trailer de la película

Enlaces de descarga

Rip de Bluray

Descargar Blancanieves y los siete enanos (1937) Full HD 1080p Latino – CMHDD




Aportes de DPeliculasHDmega la pass es:dpeliculashdmega.org Aportes de CinemaniaHD la pass es:cinemaniahdd.com

Películas relacionadas

  • Días De Trueno (1990) Full HD 1080p Latino

    Días De Trueno (1990) Full HD 1080p Latino

    1990
    Días De Trueno (1990) Full HD 1080p Latino

    0.0 1h 47m 1990

    Descargar Días De Trueno (1990) Full HD 1080p Latino. Cole Trickle es un joven temerario que busca en...

    Director: Tony Scott

    Género: Acción

    Actores: Tom Cruise

  • Trolls (2016) 4K UHD HDR Latino

    Trolls (2016) 4K UHD HDR Latino

    2016
    Trolls (2016) 4K UHD HDR Latino

    0.0 1h 35m 2016

    Descargar Trolls (2016) 4K UHD HDR Latino. Adorable y amable, a los trolls les encanta jugar. Pero un...

    Director: Walt Dohrn

    Género: 4K HDR

    Actores: Zooey Deschanel

  • Trolls (2016) 1080p Latino

    Trolls (2016) 1080p Latino

    2016
    Trolls (2016) 1080p Latino

    4.2 0h 0m 2016

    Descargar Trolls (2016) 1080p Latino. Adorable y amable, a los trolls les encanta jugar. Pero un día,...

    Director: Walt Dohrn

    Género: Animación

    Actores: Zooey Deschanel

  • Trolls (2016) Full HD 1080p Latino

    Trolls (2016) Full HD 1080p Latino

    2016
    Trolls (2016) Full HD 1080p Latino

    4.5 1h 35m 2016

    Descargar Trolls (2016) Full HD 1080p Latino. Adorable y amable, a los trolls les encanta jugar. Pero...

    Director: Walt Dohrn

    Género: Animación

    Actores: Zooey Deschanel

  • Trolls (2016) REMUX 1080p Latino

    Trolls (2016) REMUX 1080p Latino

    2016
    Trolls (2016) REMUX 1080p Latino

    5.0 1h 35m 2016

    Descargar Trolls (2016) REMUX 1080p Latino. Adorable y amable, a los trolls les encanta jugar. Pero un...

    Director: Walt Dohrn

    Género: Animación

    Actores: Zooey Deschanel

Comentarios 0