×

¿Problemas para descargar con Mozilla, EDGE? Deshabilita la opción "Abrir vinculos en una pestaña nueva" tal como lo muestra ésta imagen.

Blair Witch (2016) Full 1080p Latino

1.797 vistas

Información de Blair Witch (2016) Full 1080p Latino

blair witch 38006 poster

Datos de la película

  • Calidad: Full 1080p
  • Audio: Español Latino AC3 5.1 BLURAY - Ingles AC3 5.1 BLURAY
  • Subtitulos: Español Latino PGS - Ingles PGS
  • Resolución: 1920X1080
  • Formato: MKV
  • Codec: H.264
  • Encoder: Dpelis
  • Mediainfo: Clic para Mostrar Datos Ver
  • Format                                   : Matroska
    Format version                           : Version 4 / Version 2
    File size                                : 8.16 GiB
    Duration                                 : 1 h 29 min
    Overall bit rate                         : 13.1 Mb/s
    Movie name                               : dpeliculashdmega.org
    Encoded date                             : UTC 2017-12-03 02:49:54 / UTC 2017-11-30T16:07:47Z
    Writing application                      : mkvmerge v15.0.0 ('Duel with the Devil') 64-bit
    Writing library                          : libebml v1.3.5 + libmatroska v1.4.5 / Lavf57.7.2

    Video
    ID                                       : 1
    Format                                   : AVC
    Format/Info                              : Advanced Video Codec
    Format profile                           : High@L4.1
    Format settings                          : CABAC / 4 Ref Frames
    Format settings, CABAC                   : Yes
    Format settings, RefFrames               : 4 frames
    Codec ID                                 : V_MPEG4/ISO/AVC
    Duration                                 : 1 h 29 min
    Bit rate                                 : 11.6 Mb/s
    Width                                    : 1 920 pixels
    Height                                   : 1 080 pixels
    Display aspect ratio                     : 16:9
    Frame rate mode                          : Constant
    Frame rate                               : 23.976 (24000/1001) FPS
    Color space                              : YUV
    Chroma subsampling                       : 4:2:0
    Bit depth                                : 8 bits
    Scan type                                : Progressive
    Bits/(Pixel*Frame)                       : 0.232
    Stream size                              : 7.20 GiB (88%)
    Title                                    : Blair Witch (2016) Full 1080p Latino
    Writing library                          : x264 core 148 r2708 86b7198
    Encoding settings                        : cabac=1 / ref=4 / deblock=1:0:0 / analyse=0x3:0x133 / me=esa / subme=10 / psy=1 / psy_rd=1.00:0.00 / mixed_ref=1 / me_range=24 / chroma_me=1 / trellis=2 / 8x8dct=1 / cqm=0 / deadzone=21,11 / fast_pskip=1 / chroma_qp_offset=-2 / threads=34 / lookahead_threads=5 / sliced_threads=0 / nr=0 / decimate=1 / interlaced=0 / bluray_compat=0 / constrained_intra=0 / bframes=8 / b_pyramid=2 / b_adapt=2 / b_bias=0 / direct=3 / weightb=1 / open_gop=0 / weightp=2 / keyint=240 / keyint_min=24 / scenecut=40 / intra_refresh=0 / rc_lookahead=60 / rc=crf / mbtree=1 / crf=20.0 / qcomp=0.60 / qpmin=0 / qpmax=69 / qpstep=4 / vbv_maxrate=62500 / vbv_bufsize=78125 / crf_max=0.0 / nal_hrd=none / filler=0 / ip_ratio=1.40 / aq=1:1.00
    Language                                 : English
    Default                                  : Yes
    Forced                                   : No
    Color range                              : Limited
    Color primaries                          : BT.709
    Transfer characteristics                 : BT.709
    Matrix coefficients                      : BT.709
    Statistics Tags Issue                    : mkvmerge v15.0.0 ('Duel with the Devil') 64-bit 2017-12-03 02:49:54 / mkvmerge v15.0.0 ('Duel with the Devil') 64-bit 2017-12-03 02:49:54 / UTC 2017-11-30T16:07:47Z
    FromStats_BitRate                        : 11782279
    FromStats_Duration                       : 01:29:11.722000000
    FromStats_FrameCount                     : 128313
    FromStats_StreamSize                     : 7881935566

    Audio #1
    ID                                       : 2
    Format                                   : AC-3
    Format/Info                              : Audio Coding 3
    Format settings, Endianness              : Big
    Codec ID                                 : A_AC3
    Duration                                 : 1 h 29 min
    Bit rate mode                            : Constant
    Bit rate                                 : 640 kb/s
    Channel(s)                               : 6 channels
    Channel positions                        : Front: L C R, Side: L R, LFE
    Sampling rate                            : 48.0 kHz
    Frame rate                               : 31.250 FPS (1536 SPF)
    Bit depth                                : 16 bits
    Compression mode                         : Lossy
    Delay relative to video                  : 64 ms
    Stream size                              : 408 MiB (5%)
    Title                                    : Latino-AC3
    Language                                 : Spanish
    Service kind                             : Complete Main
    Default                                  : Yes
    Forced                                   : Yes
    Statistics Tags Issue                    : mkvmerge v15.0.0 ('Duel with the Devil') 64-bit 2017-12-03 02:49:54 / mkvmerge v15.0.0 ('Duel with the Devil') 64-bit 2017-12-03 02:49:54 / UTC 2017-11-30T16:07:47Z
    FromStats_BitRate                        : 640000
    FromStats_Duration                       : 01:29:11.680000000
    FromStats_FrameCount                     : 167240
    FromStats_StreamSize                     : 428134400

    Audio #2
    ID                                       : 3
    Format                                   : AC-3
    Format/Info                              : Audio Coding 3
    Format settings, Endianness              : Big
    Codec ID                                 : A_AC3
    Duration                                 : 1 h 29 min
    Bit rate mode                            : Constant
    Bit rate                                 : 640 kb/s
    Channel(s)                               : 6 channels
    Channel positions                        : Front: L C R, Side: L R, LFE
    Sampling rate                            : 48.0 kHz
    Frame rate                               : 31.250 FPS (1536 SPF)
    Bit depth                                : 16 bits
    Compression mode                         : Lossy
    Delay relative to video                  : 64 ms
    Stream size                              : 408 MiB (5%)
    Title                                    : Ingles-AC3
    Language                                 : English
    Service kind                             : Complete Main
    Default                                  : No
    Forced                                   : No
    Statistics Tags Issue                    : mkvmerge v15.0.0 ('Duel with the Devil') 64-bit 2017-12-03 02:49:54 / mkvmerge v15.0.0 ('Duel with the Devil') 64-bit 2017-12-03 02:49:54 / UTC 2017-11-30T16:07:47Z
    FromStats_BitRate                        : 640000
    FromStats_Duration                       : 01:29:11.680000000
    FromStats_FrameCount                     : 167240
    FromStats_StreamSize                     : 428134400

    Text #1
    ID                                       : 4
    Format                                   : PGS
    Muxing mode                              : zlib
    Codec ID                                 : S_HDMV/PGS
    Codec ID/Info                            : Picture based subtitle format used on BDs/HD-DVDs
    Language                                 : English
    Default                                  : No
    Forced                                   : No
    Statistics Tags Issue                    : mkvmerge v15.0.0 ('Duel with the Devil') 64-bit 2017-12-03 02:49:54 / mkvmerge v15.0.0 ('Duel with the Devil') 64-bit 2017-12-03 02:49:54 / UTC 2017-11-30T16:07:47Z
    FromStats_BitRate                        : 43597
    FromStats_Duration                       : 01:21:10.837000000
    FromStats_FrameCount                     : 2786
    FromStats_StreamSize                     : 26544285

    Text #2
    ID                                       : 5
    Format                                   : PGS
    Muxing mode                              : zlib
    Codec ID                                 : S_HDMV/PGS
    Codec ID/Info                            : Picture based subtitle format used on BDs/HD-DVDs
    Language                                 : Spanish
    Default                                  : No
    Forced                                   : No
    Statistics Tags Issue                    : mkvmerge v15.0.0 ('Duel with the Devil') 64-bit 2017-12-03 02:49:54 / mkvmerge v15.0.0 ('Duel with the Devil') 64-bit 2017-12-03 02:49:54 / UTC 2017-11-30T16:07:47Z
    FromStats_BitRate                        : 28756
    FromStats_Duration                       : 01:21:16.091000000
    FromStats_FrameCount                     : 2000
    FromStats_StreamSize                     : 17527707

    Menu
    00:00:00.000                             : :Chapter 1
    00:05:09.351                             : :Chapter 2
    00:08:24.337                             : :Chapter 3
    00:10:57.824                             : :Chapter 4
    00:16:17.477                             : :Chapter 5
    00:21:14.648                             : :Chapter 6
    00:29:41.488                             : :Chapter 7
    00:35:58.073                             : :Chapter 8
    00:40:35.808                             : :Chapter 9
    00:46:00.633                             : :Chapter 10
    00:52:31.023                             : :Chapter 11
    00:59:21.099                             : :Chapter 12
    01:04:42.170                             : :Chapter 13
    01:09:51.854                             : :Chapter 14
    01:15:52.715                             : :Chapter 15
    01:20:29.658                             : :Chapter 16

  • Peso: 8.16 GiB

Sinopsis

Secuela de «The Blair Witch Project». Unos estudiantes se adentran en los bosques Black Hills de Maryland para intentar descubrir qué pasó en la desaparición de la hermana de James, relacionada con la leyenda de la bruja de Blair. Pronto una pareja de lugareños se ofrece a ser sus guías en los bosques.

Ficha técnica

Video trailer de la película

Enlaces de descarga

Rip de Bluray

Descargar Blair Witch (2016) Full 1080p Latino




Aportes de DPeliculasHDmega la pass es:dpeliculashdmega.org Aportes de CinemaniaHD la pass es:cinemaniahdd.com

Películas relacionadas

descargar Blair Witch (2016) Full 1080p Latino Full 1080p 1080p gratis, Blair Witch (2016) Full 1080p Latino Full 1080p mega 1 link, Blair Witch (2016) Full 1080p Latino Full 1080p pelicula completa, descargar Blair Witch (2016) Full 1080p Latino Full 1080p gratis en mega.

Blair Witch (2016) Full 1080p Latino pelicula full hd, Blair Witch (2016) Full 1080p Latino mega latino, Blair Witch (2016) Full 1080p Latino 4k latino, Blair Witch (2016) Full 1080p Latino pelicula completa, Blair Witch (2016) Full 1080p Latino descargar gratis, descargar Blair Witch (2016) Full 1080p Latino pelicula latino, Blair Witch (2016) Full 1080p Latino 1 link mega, Blair Witch (2016) Full 1080p Latino 1 link google drive, Blair Witch (2016) Full 1080p Latino hd 1080p latino.
Comentarios 2
  • slash - 09 diciembre, 2017

    Muchas gracias, ¿publicaran las otras 2 de la Bruja de Blair?

    • Dpelis2 - 09 diciembre, 2017

      claro que si.