×

¿Problemas para descargar con Mozilla, EDGE? Deshabilita la opción "Abrir vinculos en una pestaña nueva" tal como lo muestra ésta imagen.

Blade Runner The Final Cut (1982) REMUX 1080p Latino – CMHDD

276 vistas

Información de Blade Runner The Final Cut (1982) REMUX 1080p Latino – CMHDD

Datos de la película

  • Calidad: 4K HDR
  • Audio: Se especifica abajo de la Sinopsis
  • Subtitulos: Español Latino PGS
  • Resolución: 3840x2160p
  • Formato: MKV
  • Codec: HEVC
  • Encoder: Dracarys
  • Mediainfo: Clic para Mostrar Datos Ver
  • Format                      : Matroska
    Format version              : Version 4
    File size                   : 45.2 GiB
    Duration                    : 1 h 57 min
    Overall bit rate mode       : Variable
    Overall bit rate            : 55.0 Mb/s
    Movie name                  : Blade Runner: The Final Cut (1982) REMUX 1080p Latino - CMHDD
    Encoded date                : UTC 2021-07-20 21:05:39
    Writing application         : mkvmerge v56.1.0 ('My Friend') 64-bit
    Writing library             : libebml v1.4.2 + libmatroska v1.6.4
    Cover                       : Yes
    Attachments                 : cover.jpg

    Video
    ID                          : 1
    ID in the original source m : 4113 (0x1011)
    Format                      : HEVC
    Format/Info                 : High Efficiency Video Coding
    Format profile              : Main 10@L5.1@High
    HDR format                  : SMPTE ST 2086, HDR10 compatible
    Codec ID                    : V_MPEGH/ISO/HEVC
    Duration                    : 1 h 57 min
    Bit rate                    : 50.0 Mb/s
    Width                       : 3 840 pixels
    Height                      : 2 160 pixels
    Display aspect ratio        : 16:9
    Frame rate mode             : Constant
    Frame rate                  : 23.976 (24000/1001) FPS
    Color space                 : YUV
    Chroma subsampling          : 4:2:0 (Type 2)
    Bit depth                   : 10 bits
    Bits/(Pixel*Frame)          : 0.251
    Stream size                 : 41.0 GiB (91%)
    Writing library             : ATEME Titan File 3.8.3 (4.8.3.0)        
    Default                     : Yes
    Forced                      : No
    Color range                 : Limited
    Color primaries             : BT.2020
    Transfer characteristics    : PQ
    Matrix coefficients         : BT.2020 non-constant
    Mastering display color pri : Display P3
    Mastering display luminance : min: 0.0050 cd/m2, max: 4000 cd/m2
    Maximum Content Light Level : 1655 cd/m2
    Maximum Frame-Average Light : 117 cd/m2
    Original source medium      : Blu-ray

    Audio #1
    ID                          : 2
    ID in the original source m : 4352 (0x1100)
    Format                      : MLP FBA 16-ch
    Format/Info                 : Meridian Lossless Packing FBA with 16-channel presentation
    Commercial name             : Dolby TrueHD with Dolby Atmos
    Codec ID                    : A_TRUEHD
    Duration                    : 1 h 57 min
    Bit rate mode               : Variable
    Bit rate                    : 4 336 kb/s
    Maximum bit rate            : 7 305 kb/s
    Channel(s)                  : 8 channels
    Channel layout              : L R C LFE Ls Rs Lb Rb
    Sampling rate               : 48.0 kHz
    Frame rate                  : 1 200.000 FPS (40 SPF)
    Compression mode            : Lossless
    Stream size                 : 3.56 GiB (8%)
    Language                    : English
    Default                     : No
    Forced                      : No
    Original source medium      : Blu-ray
    Number of dynamic objects   : 11
    Bed channel count           : 1 channel
    Bed channel configuration   : LFE

    Audio #2
    ID                          : 3
    ID in the original source m : 4352 (0x1100)
    Format                      : AC-3
    Format/Info                 : Audio Coding 3
    Commercial name             : Dolby Digital
    Codec ID                    : A_AC3
    Duration                    : 1 h 57 min
    Bit rate mode               : Constant
    Bit rate                    : 448 kb/s
    Channel(s)                  : 6 channels
    Channel layout              : L R C LFE Ls Rs
    Sampling rate               : 48.0 kHz
    Frame rate                  : 31.250 FPS (1536 SPF)
    Compression mode            : Lossy
    Stream size                 : 377 MiB (1%)
    Language                    : English
    Service kind                : Complete Main
    Default                     : No
    Forced                      : No
    Original source medium      : Blu-ray

    Audio #3
    ID                          : 4
    ID in the original source m : 4358 (0x1106)
    Format                      : AC-3
    Format/Info                 : Audio Coding 3
    Commercial name             : Dolby Digital
    Codec ID                    : A_AC3
    Duration                    : 1 h 57 min
    Bit rate mode               : Constant
    Bit rate                    : 192 kb/s
    Channel(s)                  : 2 channels
    Channel layout              : L R
    Sampling rate               : 48.0 kHz
    Frame rate                  : 31.250 FPS (1536 SPF)
    Compression mode            : Lossy
    Stream size                 : 161 MiB (0%)
    Language                    : Spanish
    Service kind                : Complete Main
    Default                     : Yes
    Forced                      : No
    Original source medium      : Blu-ray

    Text
    ID                          : 5
    ID in the original source m : 4783 (0x12AF)
    Format                      : PGS
    Muxing mode                 : zlib
    Codec ID                    : S_HDMV/PGS
    Codec ID/Info               : Picture based subtitle format used on BDs/HD-DVDs
    Duration                    : 1 h 55 min
    Bit rate                    : 13.6 kb/s
    Count of elements           : 1482
    Stream size                 : 11.2 MiB (0%)
    Language                    : Spanish
    Default                     : No
    Forced                      : No
    Original source medium      : Blu-ray

    Menu
    00:00:00.000                : Chapter 01
    00:02:58.178                : Chapter 02
    00:04:31.980                : Chapter 03
    00:07:26.112                : Chapter 04
    00:11:18.260                : Chapter 05
    00:12:58.569                : Chapter 06
    00:16:58.183                : Chapter 07
    00:22:38.815                : Chapter 08
    00:25:04.878                : Chapter 09
    00:27:58.343                : Chapter 10
    00:30:21.486                : Chapter 11
    00:36:19.177                : Chapter 12
    00:41:30.321                : Chapter 13
    00:42:23.999                : Chapter 14
    00:45:56.336                : Chapter 15
    00:48:44.463                : Chapter 16
    00:55:18.898                : Chapter 17
    00:57:27.277                : Chapter 18
    00:59:44.998                : Chapter 19
    01:01:49.414                : Chapter 20
    01:03:17.001                : Chapter 21
    01:07:44.393                : Chapter 22
    01:12:39.521                : Chapter 23
    01:16:13.527                : Chapter 24
    01:20:12.474                : Chapter 25
    01:22:34.532                : Chapter 26
    01:27:07.513                : Chapter 27
    01:28:45.236                : Chapter 28
    01:34:02.219                : Chapter 29
    01:36:54.308                : Chapter 30
    01:41:12.316                : Chapter 31
    01:42:37.276                : Chapter 32
    01:44:31.807                : Chapter 33
    01:45:56.266                : Chapter 34
    01:49:04.496                : Chapter 35
    01:52:21.735                : Chapter 36

  • Peso: 45.2 GiB

Sinopsis

A principios del siglo XXI, la Tyrell Corporation desarrolló un nuevo tipo de robot llamado Nexus, un ser virtualmente idéntico al hombre y conocido como Replicante. Los Replicantes Nexus-6 eran superiores en fuerza y agilidad, y al menos iguales en inteligencia, a los ingenieros de genética que los crearon. En el espacio exterior, los Replicantes fueron usados como trabajadores esclavos en la arriesgada exploración y colonización de otros planetas. Después de la sangrienta rebelión de un equipo de combate de Nexus-6 en una colonia sideral, los Replicantes fueron declarados proscritos en la Tierra bajo pena de muerte. Brigadas de policías especiales, con el nombre de Unidades de Blade Runners, tenían órdenes de tirar a matar al ver a cualquier Replicante invasor. A esto no se le llamó ejecución, se le llamó retiro.

 

Latino: AC3 2.0  –  Ingles: TrueHD 7.1 + AC3 5.1

Ficha técnica

Video trailer de la película

Enlaces de descarga

Rip de Bluray

Descargar Blade Runner The Final Cut (1982) REMUX 1080p Latino – CMHDD


Aportes de DPeliculasHDmega la pass es:dpeliculashdmega.org Aportes de CinemaniaHD la pass es:cinemaniahdd.com
Guardado en : Ciencia ficción , Drama , Suspenso

Películas relacionadas

  • Hombre de familia (2000) REMUX 1080p Latino

    Hombre de familia (2000) REMUX 1080p Latino

    2000
    Hombre de familia (2000) REMUX 1080p Latino

    2h 1m 2000

    Descargar Hombre de familia (2000) REMUX 1080p Latino. Jack Campbell es un egocéntrico broker de Wall...

    Director: Robert Schroer

    Género: Comedia

    Actores: Wass Stevens

  • Anon (2018) REMUX 1080p Latino

    Anon (2018) REMUX 1080p Latino

    2018
    Anon (2018) REMUX 1080p Latino

    1h 40m 2018

    Descargar Anon (2018) REMUX 1080p Latino. Anon nos lleva hasta un futuro no muy lejano al estilo soviético,...

    Director: Sarah Campbell

    Género: Ciencia ficción

    Actores: Zion Lee

descargar Blade Runner The Final Cut (1982) REMUX 1080p Latino – CMHDD 4K HDR 1080p gratis, Blade Runner The Final Cut (1982) REMUX 1080p Latino – CMHDD 4K HDR mega 1 link, Blade Runner The Final Cut (1982) REMUX 1080p Latino – CMHDD 4K HDR pelicula completa, descargar Blade Runner The Final Cut (1982) REMUX 1080p Latino – CMHDD 4K HDR gratis en mega.

Blade Runner The Final Cut (1982) REMUX 1080p Latino – CMHDD pelicula full hd, Blade Runner The Final Cut (1982) REMUX 1080p Latino – CMHDD mega latino, Blade Runner The Final Cut (1982) REMUX 1080p Latino – CMHDD 4k latino, Blade Runner The Final Cut (1982) REMUX 1080p Latino – CMHDD pelicula completa, Blade Runner The Final Cut (1982) REMUX 1080p Latino – CMHDD descargar gratis, descargar Blade Runner The Final Cut (1982) REMUX 1080p Latino – CMHDD pelicula latino, Blade Runner The Final Cut (1982) REMUX 1080p Latino – CMHDD 1 link mega, Blade Runner The Final Cut (1982) REMUX 1080p Latino – CMHDD 1 link google drive, Blade Runner The Final Cut (1982) REMUX 1080p Latino – CMHDD hd 1080p latino.