×

¿Problemas para descargar con Mozilla, EDGE? Deshabilita la opción "Abrir vinculos en una pestaña nueva" tal como lo muestra ésta imagen.

Blade Runner 2049 (2017) REMUX 4K HDR Latino – CMHDD

315 vistas

Información de Blade Runner 2049 (2017) REMUX 4K HDR Latino – CMHDD

Datos de la película

  • Calidad: Full 1080p
  • Audio: Se especifica abajo de la Sinopsis
  • Subtitulos: Español Latino PGS
  • Resolución: 3840x2160p
  • Formato: MKV
  • Codec: HEVC
  • Encoder: Dracarys
  • Mediainfo: Clic para Mostrar Datos Ver
  • Format                      : Matroska
    Format version              : Version 4
    File size                   : 63.6 GiB
    Duration                    : 2 h 43 min
    Overall bit rate mode       : Variable
    Overall bit rate            : 55.7 Mb/s
    Movie name                  : Blade Runner (2049) REMUX 4K HDR Latino - CMHDD
    Encoded date                : UTC 2021-07-20 21:29:30
    Writing application         : mkvmerge v56.1.0 ('My Friend') 64-bit
    Writing library             : libebml v1.4.2 + libmatroska v1.6.4
    Cover                       : Yes
    Attachments                 : cover.jpg

    Video
    ID                          : 1
    Format                      : HEVC
    Format/Info                 : High Efficiency Video Coding
    Format profile              : Main 10@L5.1@High
    HDR format                  : SMPTE ST 2086, HDR10 compatible
    Codec ID                    : V_MPEGH/ISO/HEVC
    Duration                    : 2 h 43 min
    Bit rate                    : 49.5 Mb/s
    Width                       : 3 840 pixels
    Height                      : 2 160 pixels
    Display aspect ratio        : 16:9
    Frame rate mode             : Constant
    Frame rate                  : 23.976 (24000/1001) FPS
    Color space                 : YUV
    Chroma subsampling          : 4:2:0 (Type 2)
    Bit depth                   : 10 bits
    Bits/(Pixel*Frame)          : 0.249
    Stream size                 : 56.5 GiB (89%)
    Default                     : Yes
    Forced                      : No
    Color range                 : Limited
    Color primaries             : BT.2020
    Transfer characteristics    : PQ
    Matrix coefficients         : BT.2020 non-constant
    Mastering display color pri : Display P3
    Mastering display luminance : min: 0.0050 cd/m2, max: 4000 cd/m2
    Maximum Content Light Level : 457 cd/m2
    Maximum Frame-Average Light : 179 cd/m2

    Audio #1
    ID                          : 2
    Format                      : MLP FBA 16-ch
    Format/Info                 : Meridian Lossless Packing FBA with 16-channel presentation
    Commercial name             : Dolby TrueHD with Dolby Atmos
    Codec ID                    : A_TRUEHD
    Duration                    : 2 h 43 min
    Bit rate mode               : Variable
    Bit rate                    : 4 597 kb/s
    Maximum bit rate            : 5 022 kb/s
    Channel(s)                  : 8 channels
    Channel layout              : L R C LFE Ls Rs Lb Rb
    Sampling rate               : 48.0 kHz
    Frame rate                  : 1 200.000 FPS (40 SPF)
    Compression mode            : Lossless
    Stream size                 : 5.25 GiB (8%)
    Language                    : English
    Default                     : No
    Forced                      : No
    Number of dynamic objects   : 11
    Bed channel count           : 1 channel
    Bed channel configuration   : LFE

    Audio #2
    ID                          : 3
    Format                      : AC-3
    Format/Info                 : Audio Coding 3
    Commercial name             : Dolby Digital
    Codec ID                    : A_AC3
    Duration                    : 2 h 43 min
    Bit rate mode               : Constant
    Bit rate                    : 640 kb/s
    Channel(s)                  : 6 channels
    Channel layout              : L R C LFE Ls Rs
    Sampling rate               : 48.0 kHz
    Frame rate                  : 31.250 FPS (1536 SPF)
    Compression mode            : Lossy
    Stream size                 : 748 MiB (1%)
    Language                    : English
    Service kind                : Complete Main
    Default                     : No
    Forced                      : No

    Audio #3
    ID                          : 4
    Format                      : AC-3
    Format/Info                 : Audio Coding 3
    Commercial name             : Dolby Digital
    Codec ID                    : A_AC3
    Duration                    : 2 h 43 min
    Bit rate mode               : Constant
    Bit rate                    : 640 kb/s
    Channel(s)                  : 6 channels
    Channel layout              : L R C LFE Ls Rs
    Sampling rate               : 48.0 kHz
    Frame rate                  : 31.250 FPS (1536 SPF)
    Compression mode            : Lossy
    Stream size                 : 748 MiB (1%)
    Language                    : Spanish
    Service kind                : Complete Main
    Default                     : Yes
    Forced                      : No

    Text #1
    ID                          : 5
    Format                      : PGS
    Muxing mode                 : zlib
    Codec ID                    : S_HDMV/PGS
    Codec ID/Info               : Picture based subtitle format used on BDs/HD-DVDs
    Duration                    : 2 h 32 min
    Bit rate                    : 14.9 kb/s
    Count of elements           : 1950
    Stream size                 : 16.3 MiB (0%)
    Language                    : English
    Default                     : Yes
    Forced                      : No

    Text #2
    ID                          : 6
    Format                      : PGS
    Muxing mode                 : zlib
    Codec ID                    : S_HDMV/PGS
    Codec ID/Info               : Picture based subtitle format used on BDs/HD-DVDs
    Duration                    : 2 h 32 min
    Bit rate                    : 14.9 kb/s
    Count of elements           : 1950
    Stream size                 : 16.3 MiB (0%)
    Language                    : English
    Default                     : No
    Forced                      : No

    Text #3
    ID                          : 7
    Format                      : PGS
    Muxing mode                 : zlib
    Codec ID                    : S_HDMV/PGS
    Codec ID/Info               : Picture based subtitle format used on BDs/HD-DVDs
    Duration                    : 2 h 34 min
    Bit rate                    : 18.6 kb/s
    Count of elements           : 2458
    Stream size                 : 20.5 MiB (0%)
    Language                    : English
    Default                     : No
    Forced                      : No

    Text #4
    ID                          : 8
    Format                      : PGS
    Muxing mode                 : zlib
    Codec ID                    : S_HDMV/PGS
    Codec ID/Info               : Picture based subtitle format used on BDs/HD-DVDs
    Duration                    : 2 h 42 min
    Bit rate                    : 8 520 b/s
    Count of elements           : 2097
    Stream size                 : 9.91 MiB (0%)
    Language                    : Arabic
    Default                     : No
    Forced                      : No

    Text #5
    ID                          : 9
    Format                      : PGS
    Muxing mode                 : zlib
    Codec ID                    : S_HDMV/PGS
    Codec ID/Info               : Picture based subtitle format used on BDs/HD-DVDs
    Duration                    : 2 h 42 min
    Bit rate                    : 15.6 kb/s
    Count of elements           : 2078
    Stream size                 : 18.2 MiB (0%)
    Language                    : Bulgarian
    Default                     : No
    Forced                      : No

    Text #6
    ID                          : 10
    Format                      : PGS
    Muxing mode                 : zlib
    Codec ID                    : S_HDMV/PGS
    Codec ID/Info               : Picture based subtitle format used on BDs/HD-DVDs
    Duration                    : 2 h 42 min
    Bit rate                    : 13.3 kb/s
    Count of elements           : 2092
    Stream size                 : 15.5 MiB (0%)
    Language                    : Chinese
    Default                     : No
    Forced                      : No

    Text #7
    ID                          : 11
    Format                      : PGS
    Muxing mode                 : zlib
    Codec ID                    : S_HDMV/PGS
    Codec ID/Info               : Picture based subtitle format used on BDs/HD-DVDs
    Duration                    : 2 h 42 min
    Bit rate                    : 12.4 kb/s
    Count of elements           : 2090
    Stream size                 : 14.4 MiB (0%)
    Language                    : Chinese
    Default                     : No
    Forced                      : No

    Text #8
    ID                          : 12
    Format                      : PGS
    Muxing mode                 : zlib
    Codec ID                    : S_HDMV/PGS
    Codec ID/Info               : Picture based subtitle format used on BDs/HD-DVDs
    Duration                    : 2 h 42 min
    Bit rate                    : 12.6 kb/s
    Count of elements           : 2086
    Stream size                 : 14.7 MiB (0%)
    Language                    : Chinese
    Default                     : No
    Forced                      : No

    Text #9
    ID                          : 13
    Format                      : PGS
    Muxing mode                 : zlib
    Codec ID                    : S_HDMV/PGS
    Codec ID/Info               : Picture based subtitle format used on BDs/HD-DVDs
    Duration                    : 2 h 42 min
    Bit rate                    : 13.8 kb/s
    Count of elements           : 2084
    Stream size                 : 16.1 MiB (0%)
    Language                    : Croatian
    Default                     : No
    Forced                      : No

    Text #10
    ID                          : 14
    Format                      : PGS
    Muxing mode                 : zlib
    Codec ID                    : S_HDMV/PGS
    Codec ID/Info               : Picture based subtitle format used on BDs/HD-DVDs
    Duration                    : 2 h 42 min
    Bit rate                    : 14.0 kb/s
    Count of elements           : 2074
    Stream size                 : 16.3 MiB (0%)
    Language                    : Czech
    Default                     : No
    Forced                      : No

    Text #11
    ID                          : 15
    Format                      : PGS
    Muxing mode                 : zlib
    Codec ID                    : S_HDMV/PGS
    Codec ID/Info               : Picture based subtitle format used on BDs/HD-DVDs
    Duration                    : 2 h 41 min
    Bit rate                    : 17.1 kb/s
    Count of elements           : 2116
    Stream size                 : 19.7 MiB (0%)
    Language                    : Greek
    Default                     : No
    Forced                      : No

    Text #12
    ID                          : 16
    Format                      : PGS
    Muxing mode                 : zlib
    Codec ID                    : S_HDMV/PGS
    Codec ID/Info               : Picture based subtitle format used on BDs/HD-DVDs
    Duration                    : 2 h 42 min
    Bit rate                    : 11.6 kb/s
    Count of elements           : 2104
    Stream size                 : 13.5 MiB (0%)
    Language                    : Hebrew
    Default                     : No
    Forced                      : No

    Text #13
    ID                          : 17
    Format                      : PGS
    Muxing mode                 : zlib
    Codec ID                    : S_HDMV/PGS
    Codec ID/Info               : Picture based subtitle format used on BDs/HD-DVDs
    Duration                    : 2 h 42 min
    Bit rate                    : 14.5 kb/s
    Count of elements           : 1984
    Stream size                 : 16.9 MiB (0%)
    Language                    : Hungarian
    Default                     : No
    Forced                      : No

    Text #14
    ID                          : 18
    Format                      : PGS
    Muxing mode                 : zlib
    Codec ID                    : S_HDMV/PGS
    Codec ID/Info               : Picture based subtitle format used on BDs/HD-DVDs
    Duration                    : 2 h 42 min
    Bit rate                    : 15.4 kb/s
    Count of elements           : 2036
    Stream size                 : 18.0 MiB (0%)
    Language                    : Icelandic
    Default                     : No
    Forced                      : No

    Text #15
    ID                          : 19
    Format                      : PGS
    Muxing mode                 : zlib
    Codec ID                    : S_HDMV/PGS
    Codec ID/Info               : Picture based subtitle format used on BDs/HD-DVDs
    Duration                    : 2 h 42 min
    Bit rate                    : 17.0 kb/s
    Count of elements           : 2116
    Stream size                 : 19.8 MiB (0%)
    Language                    : Indonesian
    Default                     : No
    Forced                      : No

    Text #16
    ID                          : 20
    Format                      : PGS
    Muxing mode                 : zlib
    Codec ID                    : S_HDMV/PGS
    Codec ID/Info               : Picture based subtitle format used on BDs/HD-DVDs
    Duration                    : 2 h 42 min
    Bit rate                    : 12.2 kb/s
    Count of elements           : 2104
    Stream size                 : 14.2 MiB (0%)
    Language                    : Korean
    Default                     : No
    Forced                      : No

    Text #17
    ID                          : 21
    Format                      : PGS
    Muxing mode                 : zlib
    Codec ID                    : S_HDMV/PGS
    Codec ID/Info               : Picture based subtitle format used on BDs/HD-DVDs
    Duration                    : 2 h 42 min
    Bit rate                    : 18.2 kb/s
    Count of elements           : 2126
    Stream size                 : 21.2 MiB (0%)
    Language                    : Malay
    Default                     : No
    Forced                      : No

    Text #18
    ID                          : 22
    Format                      : PGS
    Muxing mode                 : zlib
    Codec ID                    : S_HDMV/PGS
    Codec ID/Info               : Picture based subtitle format used on BDs/HD-DVDs
    Duration                    : 2 h 42 min
    Bit rate                    : 16.0 kb/s
    Count of elements           : 2092
    Stream size                 : 18.6 MiB (0%)
    Language                    : Polish
    Default                     : No
    Forced                      : No

    Text #19
    ID                          : 23
    Format                      : PGS
    Muxing mode                 : zlib
    Codec ID                    : S_HDMV/PGS
    Codec ID/Info               : Picture based subtitle format used on BDs/HD-DVDs
    Duration                    : 2 h 42 min
    Bit rate                    : 16.0 kb/s
    Count of elements           : 2086
    Stream size                 : 18.6 MiB (0%)
    Language                    : Portuguese
    Default                     : No
    Forced                      : No

    Text #20
    ID                          : 24
    Format                      : PGS
    Muxing mode                 : zlib
    Codec ID                    : S_HDMV/PGS
    Codec ID/Info               : Picture based subtitle format used on BDs/HD-DVDs
    Duration                    : 2 h 42 min
    Bit rate                    : 16.0 kb/s
    Count of elements           : 2102
    Stream size                 : 18.6 MiB (0%)
    Language                    : Portuguese
    Default                     : No
    Forced                      : No

    Text #21
    ID                          : 25
    Format                      : PGS
    Muxing mode                 : zlib
    Codec ID                    : S_HDMV/PGS
    Codec ID/Info               : Picture based subtitle format used on BDs/HD-DVDs
    Duration                    : 2 h 42 min
    Bit rate                    : 15.2 kb/s
    Count of elements           : 2080
    Stream size                 : 17.6 MiB (0%)
    Language                    : Romanian
    Default                     : No
    Forced                      : No

    Text #22
    ID                          : 26
    Format                      : PGS
    Muxing mode                 : zlib
    Codec ID                    : S_HDMV/PGS
    Codec ID/Info               : Picture based subtitle format used on BDs/HD-DVDs
    Duration                    : 2 h 42 min
    Bit rate                    : 14.6 kb/s
    Count of elements           : 2082
    Stream size                 : 17.0 MiB (0%)
    Language                    : Serbian
    Default                     : No
    Forced                      : No

    Text #23
    ID                          : 27
    Format                      : PGS
    Muxing mode                 : zlib
    Codec ID                    : S_HDMV/PGS
    Codec ID/Info               : Picture based subtitle format used on BDs/HD-DVDs
    Duration                    : 2 h 42 min
    Bit rate                    : 13.7 kb/s
    Count of elements           : 2082
    Stream size                 : 15.9 MiB (0%)
    Language                    : Slovak
    Default                     : No
    Forced                      : No

    Text #24
    ID                          : 28
    Format                      : PGS
    Muxing mode                 : zlib
    Codec ID                    : S_HDMV/PGS
    Codec ID/Info               : Picture based subtitle format used on BDs/HD-DVDs
    Duration                    : 2 h 42 min
    Bit rate                    : 13.3 kb/s
    Count of elements           : 1964
    Stream size                 : 15.5 MiB (0%)
    Language                    : Slovenian
    Default                     : No
    Forced                      : No

    Text #25
    ID                          : 29
    Format                      : PGS
    Muxing mode                 : zlib
    Codec ID                    : S_HDMV/PGS
    Codec ID/Info               : Picture based subtitle format used on BDs/HD-DVDs
    Duration                    : 2 h 42 min
    Bit rate                    : 15.6 kb/s
    Count of elements           : 2090
    Stream size                 : 18.1 MiB (0%)
    Language                    : Spanish
    Default                     : No
    Forced                      : No

    Text #26
    ID                          : 30
    Format                      : PGS
    Muxing mode                 : zlib
    Codec ID                    : S_HDMV/PGS
    Codec ID/Info               : Picture based subtitle format used on BDs/HD-DVDs
    Duration                    : 2 h 42 min
    Bit rate                    : 14.8 kb/s
    Count of elements           : 2096
    Stream size                 : 17.2 MiB (0%)
    Language                    : Thai
    Default                     : No
    Forced                      : No

    Text #27
    ID                          : 31
    Format                      : PGS
    Muxing mode                 : zlib
    Codec ID                    : S_HDMV/PGS
    Codec ID/Info               : Picture based subtitle format used on BDs/HD-DVDs
    Duration                    : 2 h 42 min
    Bit rate                    : 15.7 kb/s
    Count of elements           : 2092
    Stream size                 : 18.3 MiB (0%)
    Language                    : Turkish
    Default                     : No
    Forced                      : No

    Text #28
    ID                          : 32
    Format                      : PGS
    Muxing mode                 : zlib
    Codec ID                    : S_HDMV/PGS
    Codec ID/Info               : Picture based subtitle format used on BDs/HD-DVDs
    Duration                    : 2 h 42 min
    Bit rate                    : 17.6 kb/s
    Count of elements           : 2146
    Stream size                 : 20.5 MiB (0%)
    Language                    : Vietnamese
    Default                     : No
    Forced                      : No

    Menu
    00:00:00.000                : Chapter 01
    00:12:36.172                : Chapter 02
    00:23:29.282                : Chapter 03
    00:37:00.885                : Chapter 04
    00:42:50.317                : Chapter 05
    00:49:24.503                : Chapter 06
    00:58:35.553                : Chapter 07
    01:04:10.680                : Chapter 08
    01:15:47.292                : Chapter 09
    01:25:12.482                : Chapter 10
    01:36:15.060                : Chapter 11
    01:50:55.106                : Chapter 12
    02:01:36.872                : Chapter 13
    02:08:40.379                : Chapter 14
    02:16:42.485                : Chapter 15
    02:27:46.732                : Chapter 16

  • Peso: 63.6 GiB

Sinopsis

Han pasado 30 años desde los acontecimientos ocurridos en Blade Runner (1982). El oficial K, un blade runner caza-replicantes del Departamento de Policía de Los Ángeles, descubre un secreto que ha estado enterrado durante mucho tiempo y que tiene el potencial de llevar a la sociedad al caos. Su investigación le conducirá a la búsqueda del legendario Rick Deckard, un antiguo blade runner en paradero desconocido, que lleva desaparecido 30 años.

 

Latino: AC3 5.1  –  Ingles: TrueHD 7.1 + AC3 5.1

Ficha técnica

Video trailer de la película

Enlaces de descarga

Rip de Bluray

Descargar Blade Runner 2049 (2017) REMUX 4K HDR Latino – CMHDD


Aportes de DPeliculasHDmega la pass es:dpeliculashdmega.org Aportes de CinemaniaHD la pass es:cinemaniahdd.com
Guardado en : Ciencia ficción , Drama

Películas relacionadas

  • M3GAN (2023) AMZN WEB-DL 4K UHD HDR Latino

    M3GAN (2023) AMZN WEB-DL 4K UHD HDR Latino

    2022
    M3GAN (2023) AMZN WEB-DL 4K UHD HDR Latino

    1h 42m 2022

    Descargar M3GAN (2023) AMZN WEB-DL 4K UHD HDR Latino. Cuando Gemma se convierte en la cuidadora de su...

    Director: Stephen W. Moore

    Género: 4K HDR

    Actores: Violet McGraw

  • M3GAN (2022) MA WEB-DL 1080p Latino

    M3GAN (2022) MA WEB-DL 1080p Latino

    2022
    M3GAN (2022) MA WEB-DL 1080p Latino

    1h 42m 2022

    Descargar M3GAN (2022) MA WEB-DL 1080p Latino. Cuando Gemma se convierte en la cuidadora de su sobrina...

    Director: Stephen W. Moore

    Género: Ciencia ficción

    Actores: Violet McGraw

  • Narvik (2022) NF WEB-DL 1080p Latino

    Narvik (2022) NF WEB-DL 1080p Latino

    2022
    Narvik (2022) NF WEB-DL 1080p Latino

    1h 48m 2022

    Descargar Narvik (2022) NF WEB-DL 1080p Latino. Abril de 1940. Los ojos del mundo están puestos en Narvik,...

    Director: Suzanne Svae-Johansen

    Género: Acción

    Actores: Torfinn Nag

descargar Blade Runner 2049 (2017) REMUX 4K HDR Latino – CMHDD Full 1080p 1080p gratis, Blade Runner 2049 (2017) REMUX 4K HDR Latino – CMHDD Full 1080p mega 1 link, Blade Runner 2049 (2017) REMUX 4K HDR Latino – CMHDD Full 1080p pelicula completa, descargar Blade Runner 2049 (2017) REMUX 4K HDR Latino – CMHDD Full 1080p gratis en mega.

Blade Runner 2049 (2017) REMUX 4K HDR Latino – CMHDD pelicula full hd, Blade Runner 2049 (2017) REMUX 4K HDR Latino – CMHDD mega latino, Blade Runner 2049 (2017) REMUX 4K HDR Latino – CMHDD 4k latino, Blade Runner 2049 (2017) REMUX 4K HDR Latino – CMHDD pelicula completa, Blade Runner 2049 (2017) REMUX 4K HDR Latino – CMHDD descargar gratis, descargar Blade Runner 2049 (2017) REMUX 4K HDR Latino – CMHDD pelicula latino, Blade Runner 2049 (2017) REMUX 4K HDR Latino – CMHDD 1 link mega, Blade Runner 2049 (2017) REMUX 4K HDR Latino – CMHDD 1 link google drive, Blade Runner 2049 (2017) REMUX 4K HDR Latino – CMHDD hd 1080p latino.