×

¿Problemas para descargar con Mozilla, EDGE? Deshabilita la opción "Abrir vinculos en una pestaña nueva" tal como lo muestra ésta imagen.

Blade Runner 2049 (2017) [Open Matte] WEB-DL 1080p Latino

342 vistas

Información de Blade Runner 2049 (2017) [Open Matte] WEB-DL 1080p Latino

Datos de la película

  • Calidad: 1080p
  • Audio: Español Latino AC3 5.1 WEB-DL - Ingles AC3 5.1 WEB-DL
  • Subtitulos: Español Latino SRT- FORZADOS SRT
  • Resolución: 1920x1080
  • Formato: MKV
  • Codec: H.264
  • Encoder: cinemaniahdd
  • Mediainfo: Clic para Mostrar Datos Ver
  • Blade Runner 2049 (2017) [Open Matte] WEB-DL 1080p Latino [CNMNHDD].mkv
    Format                      : Matroska
    Format version              : Version 4
    File size                   : 19.8 GiB
    Duration                    : 2 h 43 min
    Overall bit rate            : 17.3 Mb/s
    Movie name                  : Blade Runner 2049 (2017) [Open Matte] - CinemaniaHDD.Net
    Encoded date                : UTC 2021-08-04 01:26:02
    Writing application         : mkvmerge v56.1.0 ('My Friend') 64-bit
    Writing library             : libebml v1.4.2 + libmatroska v1.6.4

    Video
    ID                          : 1
    Format                      : AVC
    Format/Info                 : Advanced Video Codec
    Format profile              : High@L4.1
    Format settings             : CABAC / 4 Ref Frames
    Format settings, CABAC      : Yes
    Format settings, Reference  : 4 frames
    Codec ID                    : V_MPEG4/ISO/AVC
    Duration                    : 2 h 43 min
    Bit rate                    : 16.0 Mb/s
    Width                       : 1 920 pixels
    Height                      : 1 080 pixels
    Display aspect ratio        : 16:9
    Frame rate mode             : Constant
    Frame rate                  : 23.976 (24000/1001) FPS
    Color space                 : YUV
    Chroma subsampling          : 4:2:0
    Bit depth                   : 8 bits
    Scan type                   : Progressive
    Bits/(Pixel*Frame)          : 0.322
    Stream size                 : 18.3 GiB (93%)
    Title                       : CinemaniaHDD
    Default                     : Yes
    Forced                      : No
    Color range                 : Limited
    Color primaries             : BT.709
    Transfer characteristics    : BT.709
    Matrix coefficients         : BT.709

    Audio #1
    ID                          : 2
    Format                      : AC-3
    Format/Info                 : Audio Coding 3
    Commercial name             : Dolby Digital
    Codec ID                    : A_AC3
    Duration                    : 2 h 43 min
    Bit rate mode               : Constant
    Bit rate                    : 640 kb/s
    Channel(s)                  : 6 channels
    Channel layout              : L R C LFE Ls Rs
    Sampling rate               : 48.0 kHz
    Frame rate                  : 31.250 FPS (1536 SPF)
    Compression mode            : Lossy
    Stream size                 : 748 MiB (4%)
    Title                       : Español latino [CinemaniaHDD]
    Language                    : Spanish
    Service kind                : Complete Main
    Default                     : Yes
    Forced                      : No

    Audio #2
    ID                          : 3
    Format                      : E-AC-3
    Format/Info                 : Enhanced AC-3
    Commercial name             : Dolby Digital Plus
    Codec ID                    : A_EAC3
    Duration                    : 2 h 43 min
    Bit rate mode               : Constant
    Bit rate                    : 640 kb/s
    Channel(s)                  : 6 channels
    Channel layout              : L R C LFE Ls Rs
    Sampling rate               : 48.0 kHz
    Frame rate                  : 31.250 FPS (1536 SPF)
    Compression mode            : Lossy
    Stream size                 : 748 MiB (4%)
    Title                       : Inglés [CinemaniaHDD]
    Language                    : English
    Service kind                : Complete Main
    Default                     : No
    Forced                      : No

    Text #1
    ID                          : 4
    Format                      : UTF-8
    Codec ID                    : S_TEXT/UTF8
    Codec ID/Info               : UTF-8 Plain Text
    Duration                    : 2 h 17 min
    Bit rate                    : 1 b/s
    Count of elements           : 53
    Stream size                 : 1.69 KiB (0%)
    Title                       : Forzados [CinemaniaHDD]
    Language                    : Spanish
    Default                     : Yes
    Forced                      : Yes

    Text #2
    ID                          : 5
    Format                      : UTF-8
    Codec ID                    : S_TEXT/UTF8
    Codec ID/Info               : UTF-8 Plain Text
    Duration                    : 2 h 31 min
    Bit rate                    : 27 b/s
    Count of elements           : 1042
    Stream size                 : 30.6 KiB (0%)
    Title                       : Español latino [CinemaniaHDD]
    Language                    : Spanish
    Default                     : No
    Forced                      : No

    Text #3
    ID                          : 6
    Format                      : UTF-8
    Codec ID                    : S_TEXT/UTF8
    Codec ID/Info               : UTF-8 Plain Text
    Duration                    : 2 h 29 min
    Bit rate                    : 31 b/s
    Count of elements           : 1354
    Stream size                 : 33.9 KiB (0%)
    Title                       : Inglés [CC] [CinemaniaHDD]
    Language                    : English
    Default                     : No
    Forced                      : No

    Menu
    00:00:00.000                : 00:00:00.000
    00:12:36.172                : 00:12:36.172
    00:23:29.283                : 00:23:29.283
    00:37:00.885                : 00:37:00.885
    00:42:50.318                : 00:42:50.318
    00:49:24.503                : 00:49:24.503
    00:58:35.554                : 00:58:35.554
    01:04:10.680                : 01:04:10.680
    01:15:47.293                : 01:15:47.293
    01:25:12.482                : 01:25:12.482
    01:36:15.061                : 01:36:15.061
    01:50:55.107                : 01:50:55.107
    02:01:36.873                : 02:01:36.873
    02:08:40.379                : 02:08:40.379
    02:16:42.486                : 02:16:42.486
    02:27:46.733                : 02:27:46.733

     

  • Peso: 19.8 GiB

Sinopsis

Han pasado 30 años desde los acontecimientos ocurridos en Blade Runner (1982). El oficial K, un blade runner caza-replicantes del Departamento de Policía de Los Ángeles, descubre un secreto que ha estado enterrado durante mucho tiempo y que tiene el potencial de llevar a la sociedad al caos. Su investigación le conducirá a la búsqueda del legendario Rick Deckard, un antiguo blade runner en paradero desconocido, que lleva desaparecido 30 años.

Ficha técnica

Video trailer de la película

Enlaces de descarga

Rip de Bluray

Descargar Blade Runner 2049 (2017) [Open Matte] WEB-DL 1080p Latino




Aportes de DPeliculasHDmega la pass es:dpeliculashdmega.org Aportes de CinemaniaHD la pass es:cinemaniahdd.com
Guardado en : Ciencia ficción , Drama , OPEN MATTE

Películas relacionadas

  • M3GAN (2023) AMZN WEB-DL 4K UHD HDR Latino

    M3GAN (2023) AMZN WEB-DL 4K UHD HDR Latino

    2022
    M3GAN (2023) AMZN WEB-DL 4K UHD HDR Latino

    1h 42m 2022

    Descargar M3GAN (2023) AMZN WEB-DL 4K UHD HDR Latino. Cuando Gemma se convierte en la cuidadora de su...

    Director: Stephen W. Moore

    Género: 4K HDR

    Actores: Violet McGraw

  • M3GAN (2022) MA WEB-DL 1080p Latino

    M3GAN (2022) MA WEB-DL 1080p Latino

    2022
    M3GAN (2022) MA WEB-DL 1080p Latino

    1h 42m 2022

    Descargar M3GAN (2022) MA WEB-DL 1080p Latino. Cuando Gemma se convierte en la cuidadora de su sobrina...

    Director: Stephen W. Moore

    Género: Ciencia ficción

    Actores: Violet McGraw

  • Narvik (2022) NF WEB-DL 1080p Latino

    Narvik (2022) NF WEB-DL 1080p Latino

    2022
    Narvik (2022) NF WEB-DL 1080p Latino

    1h 48m 2022

    Descargar Narvik (2022) NF WEB-DL 1080p Latino. Abril de 1940. Los ojos del mundo están puestos en Narvik,...

    Director: Suzanne Svae-Johansen

    Género: Acción

    Actores: Torfinn Nag

descargar Blade Runner 2049 (2017) [Open Matte] WEB-DL 1080p Latino 1080p 1080p gratis, Blade Runner 2049 (2017) [Open Matte] WEB-DL 1080p Latino 1080p mega 1 link, Blade Runner 2049 (2017) [Open Matte] WEB-DL 1080p Latino 1080p pelicula completa, descargar Blade Runner 2049 (2017) [Open Matte] WEB-DL 1080p Latino 1080p gratis en mega.

Blade Runner 2049 (2017) [Open Matte] WEB-DL 1080p Latino pelicula full hd, Blade Runner 2049 (2017) [Open Matte] WEB-DL 1080p Latino mega latino, Blade Runner 2049 (2017) [Open Matte] WEB-DL 1080p Latino 4k latino, Blade Runner 2049 (2017) [Open Matte] WEB-DL 1080p Latino pelicula completa, Blade Runner 2049 (2017) [Open Matte] WEB-DL 1080p Latino descargar gratis, descargar Blade Runner 2049 (2017) [Open Matte] WEB-DL 1080p Latino pelicula latino, Blade Runner 2049 (2017) [Open Matte] WEB-DL 1080p Latino 1 link mega, Blade Runner 2049 (2017) [Open Matte] WEB-DL 1080p Latino 1 link google drive, Blade Runner 2049 (2017) [Open Matte] WEB-DL 1080p Latino hd 1080p latino.
Comentarios 0