×

¿Problemas para descargar con Mozilla, EDGE? Deshabilita la opción "Abrir vinculos en una pestaña nueva" tal como lo muestra ésta imagen.

Blade (1998) Full 1080p Latino

3.400 vistas

Información de Blade (1998) Full 1080p Latino

blade 39394 poster

Datos de la película

  • Calidad: Full 1080p
  • Audio: Español Latino AC3 2.0 BLURAY - Ingles DTS 5.1 BLURAY
  • Subtitulos: Español Latino PGS - Ingles PGS
  • Resolución: 1920X1080p
  • Formato: MKV
  • Codec: H.264
  • Encoder: Dracarys
  • Mediainfo: Clic para Mostrar Datos Ver
  • Format                                   : Matroska
    Format version                           : Version 4 / Version 2
    File size                                : 7.33 GiB
    Duration                                 : 2 h 0 min
    Overall bit rate                         : 8 721 kb/s
    Movie name                               : CinemaniaHDD.com
    Encoded date                             : UTC 2017-12-29 23:29:15 / UTC 2017-12-27T09:32:27Z
    Writing application                      : mkvmerge v15.0.0 ('Duel with the Devil') 64-bit
    Writing library                          : libebml v1.3.5 + libmatroska v1.4.5 / Lavf57.7.2

    Video
    ID                                       : 1
    Format                                   : AVC
    Format/Info                              : Advanced Video Codec
    Format profile                           : High@L4.1
    Format settings                          : CABAC / 4 Ref Frames
    Format settings, CABAC                   : Yes
    Format settings, RefFrames               : 4 frames
    Codec ID                                 : V_MPEG4/ISO/AVC
    Duration                                 : 2 h 0 min
    Bit rate                                 : 6 847 kb/s
    Width                                    : 1 920 pixels
    Height                                   : 1 080 pixels
    Display aspect ratio                     : 16:9
    Frame rate mode                          : Constant
    Frame rate                               : 23.976 (24000/1001) FPS
    Color space                              : YUV
    Chroma subsampling                       : 4:2:0
    Bit depth                                : 8 bits
    Scan type                                : Progressive
    Bits/(Pixel*Frame)                       : 0.138
    Stream size                              : 5.75 GiB (79%)
    Title                                    : Blade (1998) Full 1080p Latino
    Writing library                          : x264 core 148 r2708 86b7198
    Encoding settings                        : cabac=1 / ref=4 / deblock=1:0:0 / analyse=0x3:0x133 / me=esa / subme=10 / psy=1 / psy_rd=1.00:0.00 / mixed_ref=1 / me_range=24 / chroma_me=1 / trellis=2 / 8x8dct=1 / cqm=0 / deadzone=21,11 / fast_pskip=1 / chroma_qp_offset=-2 / threads=34 / lookahead_threads=5 / sliced_threads=0 / nr=0 / decimate=1 / interlaced=0 / bluray_compat=0 / constrained_intra=0 / bframes=8 / b_pyramid=2 / b_adapt=2 / b_bias=0 / direct=3 / weightb=1 / open_gop=0 / weightp=2 / keyint=240 / keyint_min=24 / scenecut=40 / intra_refresh=0 / rc_lookahead=60 / rc=crf / mbtree=1 / crf=20.0 / qcomp=0.60 / qpmin=0 / qpmax=69 / qpstep=4 / vbv_maxrate=62500 / vbv_bufsize=78125 / crf_max=0.0 / nal_hrd=none / filler=0 / ip_ratio=1.40 / aq=1:1.00
    Language                                 : English
    Default                                  : Yes
    Forced                                   : No
    Color range                              : Limited
    Color primaries                          : BT.709
    Transfer characteristics                 : BT.709
    Matrix coefficients                      : BT.709
    Statistics Tags Issue                    : mkvmerge v15.0.0 ('Duel with the Devil') 64-bit 2017-12-29 23:29:15 / mkvmerge v15.0.0 ('Duel with the Devil') 64-bit 2017-12-29 23:29:15 / UTC 2017-12-27T09:32:27Z
    FromStats_BitRate                        : 7001073
    FromStats_Duration                       : 02:00:16.585000000
    FromStats_FrameCount                     : 173025
    FromStats_StreamSize                     : 6315480345

    Audio #1
    ID                                       : 2
    Format                                   : DTS
    Format/Info                              : Digital Theater Systems
    Format profile                           : ES Discrete / Core
    Mode                                     : 16
    Format settings, Endianness              : Big
    Codec ID                                 : A_DTS
    Duration                                 : 2 h 0 min
    Bit rate mode                            : Constant
    Bit rate                                 : 1 509 kb/s
    Channel(s)                               : 7 channels / 6 channels
    Channel positions                        : Front: L C R, Side: L R, Back: C, LFE / Front: L C R, Side: L R, LFE
    Sampling rate                            : 48.0 kHz
    Frame rate                               : 93.750 FPS (512 SPF)
    Bit depth                                : 24 bits
    Compression mode                         : Lossy
    Stream size                              : 1.27 GiB (17%)
    Language                                 : English
    Default                                  : No
    Forced                                   : No
    Statistics Tags Issue                    : mkvmerge v15.0.0 ('Duel with the Devil') 64-bit 2017-12-29 23:29:15 / mkvmerge v15.0.0 ('Duel with the Devil') 64-bit 2017-12-29 23:29:15 / UTC 2017-12-27T09:32:27Z
    FromStats_BitRate                        : 1508999
    FromStats_Duration                       : 02:00:16.619000000
    FromStats_FrameCount                     : 676558
    FromStats_StreamSize                     : 1361234696

    Audio #2
    ID                                       : 3
    Format                                   : AC-3
    Format/Info                              : Audio Coding 3
    Mode                                     : Dolby Digital
    Format settings, Endianness              : Big
    Codec ID                                 : A_AC3
    Duration                                 : 2 h 0 min
    Bit rate mode                            : Constant
    Bit rate                                 : 192 kb/s
    Channel(s)                               : 2 channels
    Channel positions                        : Front: L R
    Sampling rate                            : 48.0 kHz
    Frame rate                               : 31.250 FPS (1536 SPF)
    Bit depth                                : 16 bits
    Compression mode                         : Lossy
    Stream size                              : 165 MiB (2%)
    Language                                 : Spanish
    Service kind                             : Complete Main
    Default                                  : Yes
    Forced                                   : No
    Statistics Tags Issue                    : mkvmerge v15.0.0 ('Duel with the Devil') 64-bit 2017-12-29 23:29:15 / mkvmerge v15.0.0 ('Duel with the Devil') 64-bit 2017-12-29 23:29:15 / UTC 2017-12-27T09:32:27Z
    FromStats_BitRate                        : 192000
    FromStats_Duration                       : 02:00:16.640000000
    FromStats_FrameCount                     : 225520
    FromStats_StreamSize                     : 173199360

    Text #1
    ID                                       : 4
    Format                                   : PGS
    Muxing mode                              : zlib
    Codec ID                                 : S_HDMV/PGS
    Codec ID/Info                            : Picture based subtitle format used on BDs/HD-DVDs
    Language                                 : English
    Default                                  : No
    Forced                                   : No
    Statistics Tags Issue                    : mkvmerge v15.0.0 ('Duel with the Devil') 64-bit 2017-12-29 23:29:15 / mkvmerge v15.0.0 ('Duel with the Devil') 64-bit 2017-12-29 23:29:15 / UTC 2017-12-27T09:32:27Z
    FromStats_BitRate                        : 19813
    FromStats_Duration                       : 01:59:10.644000000
    FromStats_FrameCount                     : 1950
    FromStats_StreamSize                     : 17710333

    Text #2
    ID                                       : 5
    Format                                   : PGS
    Muxing mode                              : zlib
    Codec ID                                 : S_HDMV/PGS
    Codec ID/Info                            : Picture based subtitle format used on BDs/HD-DVDs
    Language                                 : Spanish
    Default                                  : No
    Forced                                   : No
    Statistics Tags Issue                    : mkvmerge v15.0.0 ('Duel with the Devil') 64-bit 2017-12-29 23:29:15 / mkvmerge v15.0.0 ('Duel with the Devil') 64-bit 2017-12-29 23:29:15 / UTC 2017-12-27T09:32:27Z
    FromStats_BitRate                        : 16985
    FromStats_Duration                       : 01:59:10.602000000
    FromStats_FrameCount                     : 1996
    FromStats_StreamSize                     : 15182305

    Menu
    00:00:00.000                             : :Chapter 1
    00:02:04.333                             : :Chapter 2
    00:03:06.228                             : :Chapter 3
    00:06:49.534                             : :Chapter 4
    00:09:49.547                             : :Chapter 5
    00:11:00.618                             : :Chapter 6
    00:13:47.201                             : :Chapter 7
    00:16:58.059                             : :Chapter 8
    00:19:33.339                             : :Chapter 9
    00:22:50.452                             : :Chapter 10
    00:23:44.798                             : :Chapter 11
    00:27:28.063                             : :Chapter 12
    00:31:04.404                             : :Chapter 13
    00:33:02.814                             : :Chapter 14
    00:35:01.600                             : :Chapter 15
    00:39:19.983                             : :Chapter 16
    00:41:47.255                             : :Chapter 17
    00:44:31.627                             : :Chapter 18
    00:47:35.144                             : :Chapter 19
    00:50:10.966                             : :Chapter 20
    00:54:01.363                             : :Chapter 21
    00:57:10.093                             : :Chapter 22
    00:58:08.485                             : :Chapter 23
    01:01:33.064                             : :Chapter 24
    01:05:21.626                             : :Chapter 25
    01:08:59.552                             : :Chapter 26
    01:12:45.653                             : :Chapter 27
    01:14:50.778                             : :Chapter 28
    01:19:15.459                             : :Chapter 29
    01:22:38.996                             : :Chapter 30
    01:25:00.345                             : :Chapter 31
    01:27:56.980                             : :Chapter 32
    01:31:32.946                             : :Chapter 33
    01:34:34.878                             : :Chapter 34
    01:37:00.440                             : :Chapter 35
    01:40:33.444                             : :Chapter 36
    01:54:02.836                             : :Chapter 37
    01:55:13.490                             : :Chapter 38

     

  • Peso: 7.33 GiB

Sinopsis

En un mundo cohabitado en guerra por hombres y vampiros Blade es un vampiro que, al contrario que el resto, no se alimenta de humanos, y que pretende acabar con la raza de «seres superiores» que mordieron a su madre cuando estaba embarazada.

Ficha técnica

Video trailer de la película

Enlaces de descarga

Rip de Bluray

Descargar Blade (1998) Full 1080p Latino




Aportes de DPeliculasHDmega la pass es:dpeliculashdmega.org Aportes de CinemaniaHD la pass es:cinemaniahdd.com Aportes recientes:cinemaniahdd.net

Películas relacionadas

descargar Blade (1998) Full 1080p Latino Full 1080p 1080p gratis, Blade (1998) Full 1080p Latino Full 1080p mega 1 link, Blade (1998) Full 1080p Latino Full 1080p pelicula completa, descargar Blade (1998) Full 1080p Latino Full 1080p gratis en mega.

Blade (1998) Full 1080p Latino pelicula full hd, Blade (1998) Full 1080p Latino mega latino, Blade (1998) Full 1080p Latino 4k latino, Blade (1998) Full 1080p Latino pelicula completa, Blade (1998) Full 1080p Latino descargar gratis, descargar Blade (1998) Full 1080p Latino pelicula latino, Blade (1998) Full 1080p Latino 1 link mega, Blade (1998) Full 1080p Latino 1 link google drive, Blade (1998) Full 1080p Latino hd 1080p latino.
Comentarios 6