Black Widow (2021) REMUX 4K HDR Latino – CMHDD

10 vistas
1 estrella2 estrellas3 estrellas4 estrellas5 estrellas (1 votos, promedio: 5,00 de 5)
Cargando...

Información de Black Widow (2021) REMUX 4K HDR Latino – CMHDD

Datos de la película

  • Calidad:
  • Audio: Se especifica abajo de la Sinopsis
  • Subtitulos: Español Latino PGS
  • Resolución: 3840x2160p
  • Formato: MKV
  • Codec: HEVC
  • Encoder: Dracarys
  • Mediainfo: Clic para Mostrar Datos Ver
  • Format                      : Matroska
    Format version              : Version 4
    File size                   : 48.8 GiB
    Duration                    : 2 h 13 min
    Overall bit rate mode       : Variable
    Overall bit rate            : 52.2 Mb/s
    Movie name                  : Black Widow (2021) REMUX 4K HDR Latino - CMHDD
    Encoded date                : UTC 2021-09-11 02:53:30
    Writing application         : mkvmerge v17.0.0 ('Be Ur Friend') 64-bit
    Writing library             : libebml v1.3.5 + libmatroska v1.4.8

    Video
    ID                          : 1
    Format                      : HEVC
    Format/Info                 : High Efficiency Video Coding
    Format profile              : Main 10@L5.1@High
    HDR format                  : SMPTE ST 2086, HDR10 compatible
    Codec ID                    : V_MPEGH/ISO/HEVC
    Duration                    : 2 h 13 min
    Bit rate                    : 46.2 Mb/s
    Width                       : 3 840 pixels
    Height                      : 2 160 pixels
    Display aspect ratio        : 16:9
    Frame rate mode             : Constant
    Frame rate                  : 23.976 (24000/1001) FPS
    Color space                 : YUV
    Chroma subsampling          : 4:2:0 (Type 2)
    Bit depth                   : 10 bits
    Bits/(Pixel*Frame)          : 0.232
    Stream size                 : 43.2 GiB (88%)
    Writing library             : ATEME Titan File 3.9.6 (4.9.6.2)        
    Default                     : Yes
    Forced                      : No
    Color range                 : Limited
    Color primaries             : BT.2020
    Transfer characteristics    : PQ
    Matrix coefficients         : BT.2020 non-constant
    Mastering display color pri : Display P3
    Mastering display luminance : min: 0.0050 cd/m2, max: 1000 cd/m2

    Audio #1
    ID                          : 2
    Format                      : MLP FBA 16-ch
    Format/Info                 : Meridian Lossless Packing FBA with 16-channel presentation
    Commercial name             : Dolby TrueHD with Dolby Atmos
    Codec ID                    : A_TRUEHD
    Duration                    : 2 h 13 min
    Bit rate mode               : Variable
    Bit rate                    : 4 284 kb/s
    Maximum bit rate            : 7 737 kb/s
    Channel(s)                  : 8 channels
    Channel layout              : L R C LFE Ls Rs Lb Rb
    Sampling rate               : 48.0 kHz
    Frame rate                  : 1 200.000 FPS (40 SPF)
    Compression mode            : Lossless
    Stream size                 : 4.00 GiB (8%)
    Language                    : English
    Default                     : No
    Forced                      : No
    Number of dynamic objects   : 13
    Bed channel count           : 1 channel
    Bed channel configuration   : LFE

    Audio #2
    ID                          : 3
    Format                      : AC-3
    Format/Info                 : Audio Coding 3
    Commercial name             : Dolby Digital
    Codec ID                    : A_AC3
    Duration                    : 2 h 13 min
    Bit rate mode               : Constant
    Bit rate                    : 640 kb/s
    Channel(s)                  : 6 channels
    Channel layout              : L R C LFE Ls Rs
    Sampling rate               : 48.0 kHz
    Frame rate                  : 31.250 FPS (1536 SPF)
    Compression mode            : Lossy
    Stream size                 : 612 MiB (1%)
    Language                    : English
    Service kind                : Complete Main
    Default                     : No
    Forced                      : No

    Audio #3
    ID                          : 4
    Format                      : E-AC-3
    Format/Info                 : Enhanced AC-3
    Commercial name             : Dolby Digital Plus
    Format profile              : Blu-ray Disc
    Codec ID                    : A_EAC3
    Duration                    : 2 h 13 min
    Bit rate mode               : Constant
    Bit rate                    : 1 024 kb/s
    Channel(s)                  : 6 channels
    Channel(s)_Original         : 8 channels
    ChannelLayout_Original      : L R C LFE Ls Rs Lrs Rrs
    Sampling rate               : 48.0 kHz
    Frame rate                  : 31.250 FPS (1536 SPF)
    Compression mode            : Lossy
    Stream size                 : 980 MiB (2%)
    Language                    : Spanish
    Service kind                : Complete Main
    Default                     : Yes
    Forced                      : No

    Text #1
    ID                          : 5
    Format                      : PGS
    Muxing mode                 : zlib
    Codec ID                    : S_HDMV/PGS
    Codec ID/Info               : Picture based subtitle format used on BDs/HD-DVDs
    Duration                    : 2 h 12 min
    Bit rate                    : 25.6 kb/s
    Count of elements           : 2604
    Stream size                 : 24.3 MiB (0%)
    Language                    : Spanish
    Default                     : No
    Forced                      : No

    Text #2
    ID                          : 6
    Format                      : PGS
    Muxing mode                 : zlib
    Codec ID                    : S_HDMV/PGS
    Codec ID/Info               : Picture based subtitle format used on BDs/HD-DVDs
    Duration                    : 2 h 0 min
    Bit rate                    : 1 072 b/s
    Count of elements           : 112
    Stream size                 : 948 KiB (0%)
    Language                    : Spanish
    Default                     : Yes
    Forced                      : No

    Menu
    00:00:00.000                : en:Chapter 1
    00:04:55.169                : en:Chapter 2
    00:13:10.080                : en:Chapter 3
    00:16:24.566                : en:Chapter 4
    00:18:41.870                : en:Chapter 5
    00:21:41.633                : en:Chapter 6
    00:25:40.789                : en:Chapter 7
    00:30:06.346                : en:Chapter 8
    00:39:05.468                : en:Chapter 9
    00:44:46.350                : en:Chapter 10
    00:53:25.994                : en:Chapter 11
    01:01:38.152                : en:Chapter 12
    01:07:46.270                : en:Chapter 13
    01:11:40.671                : en:Chapter 14
    01:17:48.789                : en:Chapter 15
    01:27:19.234                : en:Chapter 16
    01:33:33.441                : en:Chapter 17
    01:37:37.476                : en:Chapter 18
    01:41:18.655                : en:Chapter 19
    01:45:37.873                : en:Chapter 20
    01:51:41.653                : en:Chapter 21
    01:57:09.105                : en:Chapter 22
    02:01:59.687                : en:Chapter 23
    02:04:25.458                : en:Chapter 24

  • Peso: 48.8 GiB

Sinopsis

Natasha Romanoff, alias Viuda Negra, se enfrenta a las partes más oscuras de su historia cuando surge una peligrosa conspiración con vínculos con su pasado. Perseguida por una fuerza que no se detendrá ante nada para acabar con ella, Natasha debe enfrentarse a su historia como espía y a las relaciones rotas que dejó a su paso mucho antes de convertirse en una Vengadora.

 

Latino: E-AC3 7.1  –  Ingles: TrueHD 7.1 + AC3 5.1

Ficha técnica

Video trailer de la película

Enlaces de descarga

Rip de Bluray

Descargar Black Widow (2021) REMUX 4K HDR Latino – CMHDD


Aportes de DPeliculasHDmega la pass es:dpeliculashdmega.org Aportes de CinemaniaHD la pass es:cinemaniahdd.com

Películas relacionadas

Black Widow (2021) REMUX 4K HDR Latino – CMHDD pelicula full hd, Black Widow (2021) REMUX 4K HDR Latino – CMHDD mega latino, Black Widow (2021) REMUX 4K HDR Latino – CMHDD 4k latino, Black Widow (2021) REMUX 4K HDR Latino – CMHDD pelicula completa, Black Widow (2021) REMUX 4K HDR Latino – CMHDD descargar gratis, descargar Black Widow (2021) REMUX 4K HDR Latino – CMHDD pelicula latino, Black Widow (2021) REMUX 4K HDR Latino – CMHDD 1 link mega, Black Widow (2021) REMUX 4K HDR Latino – CMHDD 1 link google drive, Black Widow (2021) REMUX 4K HDR Latino – CMHDD hd 1080p latino.
Comentarios 0