×

¿Problemas para descargar con Mozilla, EDGE? Deshabilita la opción "Abrir vinculos en una pestaña nueva" tal como lo muestra ésta imagen.

Black Swan (2010) REMUX 1080p Latino – CMHDD

183 vistas

Información de Black Swan (2010) REMUX 1080p Latino – CMHDD

Datos de la película

  • Calidad: Full 1080p
  • Audio: Español Latino AC3 5.1 BLURAY - Ingles DTS 5.1 BLURAY
  • Subtitulos: Español Latino PGS
  • Resolución: 1920x1080p
  • Formato: MKV
  • Codec: H.264
  • Encoder: Dracarys
  • Mediainfo: Clic para Mostrar Datos Ver
  • Format                      : Matroska
    Format version              : Version 4
    File size                   : 24.5 GiB
    Duration                    : 1 h 48 min
    Overall bit rate mode       : Variable
    Overall bit rate            : 32.5 Mb/s
    Movie name                  : Black Swan (2010) REMUX 1080p Latino - CMHDD
    Encoded date                : UTC 2021-07-20 20:51:55
    Writing application         : mkvmerge v56.1.0 ('My Friend') 64-bit
    Writing library             : libebml v1.4.2 + libmatroska v1.6.4
    Cover                       : Yes
    Attachments                 : cover.jpg

    Video
    ID                          : 1
    ID in the original source m : 4113 (0x1011)
    Format                      : AVC
    Format/Info                 : Advanced Video Codec
    Format profile              : High@L4.1
    Format settings             : CABAC / 4 Ref Frames
    Format settings, CABAC      : Yes
    Format settings, Reference  : 4 frames
    Codec ID                    : V_MPEG4/ISO/AVC
    Duration                    : 1 h 48 min
    Bit rate mode               : Variable
    Bit rate                    : 28.4 Mb/s
    Maximum bit rate            : 35.5 Mb/s
    Width                       : 1 920 pixels
    Height                      : 1 080 pixels
    Display aspect ratio        : 16:9
    Frame rate mode             : Constant
    Frame rate                  : 23.976 (24000/1001) FPS
    Color space                 : YUV
    Chroma subsampling          : 4:2:0
    Bit depth                   : 8 bits
    Scan type                   : Progressive
    Bits/(Pixel*Frame)          : 0.571
    Stream size                 : 21.4 GiB (87%)
    Default                     : Yes
    Forced                      : No
    Color range                 : Limited
    Color primaries             : BT.709
    Transfer characteristics    : BT.709
    Matrix coefficients         : BT.709
    Original source medium      : Blu-ray

    Audio #1
    ID                          : 2
    ID in the original source m : 4352 (0x1100)
    Format                      : DTS XLL
    Format/Info                 : Digital Theater Systems
    Commercial name             : DTS-HD Master Audio
    Codec ID                    : A_DTS
    Duration                    : 1 h 48 min
    Bit rate mode               : Variable
    Bit rate                    : 3 622 kb/s
    Channel(s)                  : 6 channels
    Channel layout              : C L R Ls Rs LFE
    Sampling rate               : 48.0 kHz
    Frame rate                  : 93.750 FPS (512 SPF)
    Bit depth                   : 24 bits
    Compression mode            : Lossless
    Stream size                 : 2.74 GiB (11%)
    Language                    : English
    Default                     : No
    Forced                      : No
    Original source medium      : Blu-ray

    Audio #2
    ID                          : 3
    ID in the original source m : 4353 (0x1101)
    Format                      : AC-3
    Format/Info                 : Audio Coding 3
    Commercial name             : Dolby Digital
    Codec ID                    : A_AC3
    Duration                    : 1 h 48 min
    Bit rate mode               : Constant
    Bit rate                    : 448 kb/s
    Channel(s)                  : 6 channels
    Channel layout              : L R C LFE Ls Rs
    Sampling rate               : 48.0 kHz
    Frame rate                  : 31.250 FPS (1536 SPF)
    Compression mode            : Lossy
    Stream size                 : 346 MiB (1%)
    Language                    : Spanish
    Service kind                : Complete Main
    Default                     : Yes
    Forced                      : No
    Original source medium      : Blu-ray

    Text #1
    ID                          : 4
    ID in the original source m : 4609 (0x1201)
    Format                      : PGS
    Muxing mode                 : zlib
    Codec ID                    : S_HDMV/PGS
    Codec ID/Info               : Picture based subtitle format used on BDs/HD-DVDs
    Duration                    : 1 h 46 min
    Bit rate                    : 18.5 kb/s
    Count of elements           : 1793
    Stream size                 : 14.2 MiB (0%)
    Language                    : Spanish
    Default                     : No
    Forced                      : No
    Original source medium      : Blu-ray

    Text #2
    ID                          : 5
    ID in the original source m : 4621 (0x120D)
    Format                      : PGS
    Muxing mode                 : zlib
    Codec ID                    : S_HDMV/PGS
    Codec ID/Info               : Picture based subtitle format used on BDs/HD-DVDs
    Duration                    : 1 h 44 min
    Bit rate                    : 19.9 kb/s
    Count of elements           : 1795
    Stream size                 : 14.8 MiB (0%)
    Language                    : Spanish
    Default                     : Yes
    Forced                      : No
    Original source medium      : Blu-ray

    Menu
    00:00:00.000                : Chapter 01
    00:06:18.044                : Chapter 02
    00:12:54.732                : Chapter 03
    00:16:35.077                : Chapter 04
    00:19:06.687                : Chapter 05
    00:21:53.020                : Chapter 06
    00:26:33.592                : Chapter 07
    00:29:43.865                : Chapter 08
    00:32:18.811                : Chapter 09
    00:36:05.872                : Chapter 10
    00:40:42.606                : Chapter 11
    00:43:52.129                : Chapter 12
    00:46:39.838                : Chapter 13
    00:49:33.679                : Chapter 14
    00:52:38.488                : Chapter 15
    00:55:47.886                : Chapter 16
    00:58:23.875                : Chapter 17
    01:06:56.095                : Chapter 18
    01:10:15.794                : Chapter 19
    01:13:26.485                : Chapter 20
    01:18:28.370                : Chapter 21
    01:22:49.798                : Chapter 22
    01:25:31.793                : Chapter 23
    01:28:40.565                : Chapter 24
    01:32:53.234                : Chapter 25
    01:34:35.044                : Chapter 26
    01:37:47.444                : Chapter 27
    01:42:57.796                : Chapter 28

  • Peso: 24.5 GiB

Sinopsis

Nina, una brillante bailarina que forma parte de una compañía de ballet de Nueva York, vive completamente absorbida por la danza. La presión de su controladora madre, la rivalidad con su compañera Lily y las exigencias del severo director se irán incrementando a medida que se acerca el día del estreno. Esta tensión provoca en Nina un agotamiento nervioso y una confusión mental que la incapacitan para distinguir entre realidad y ficción.

Ficha técnica

Video trailer de la película

Enlaces de descarga

Rip de Bluray

Descargar Black Swan (2010) REMUX 1080p Latino – CMHDD


Aportes de DPeliculasHDmega la pass es:dpeliculashdmega.org Aportes de CinemaniaHD la pass es:cinemaniahdd.com
Guardado en : Drama , Suspenso , Terror

Películas relacionadas

descargar Black Swan (2010) REMUX 1080p Latino – CMHDD Full 1080p 1080p gratis, Black Swan (2010) REMUX 1080p Latino – CMHDD Full 1080p mega 1 link, Black Swan (2010) REMUX 1080p Latino – CMHDD Full 1080p pelicula completa, descargar Black Swan (2010) REMUX 1080p Latino – CMHDD Full 1080p gratis en mega.

Black Swan (2010) REMUX 1080p Latino – CMHDD pelicula full hd, Black Swan (2010) REMUX 1080p Latino – CMHDD mega latino, Black Swan (2010) REMUX 1080p Latino – CMHDD 4k latino, Black Swan (2010) REMUX 1080p Latino – CMHDD pelicula completa, Black Swan (2010) REMUX 1080p Latino – CMHDD descargar gratis, descargar Black Swan (2010) REMUX 1080p Latino – CMHDD pelicula latino, Black Swan (2010) REMUX 1080p Latino – CMHDD 1 link mega, Black Swan (2010) REMUX 1080p Latino – CMHDD 1 link google drive, Black Swan (2010) REMUX 1080p Latino – CMHDD hd 1080p latino.