×

¿Problemas para descargar con Mozilla, EDGE? Deshabilita la opción "Abrir vinculos en una pestaña nueva" tal como lo muestra ésta imagen.

Black Rain (1989) REMUX 1080p Latino – CMHDD

175 vistas

Información de Black Rain (1989) REMUX 1080p Latino – CMHDD

Datos de la película

  • Calidad: Full 1080p
  • Audio: Español Latino AC3 5.1 BLURAY - Ingles DTS 5.1 BLURAY
  • Subtitulos: Español Latino PGS
  • Resolución: 19201080p
  • Formato: MKV
  • Codec: H.264
  • Encoder: Dracarys
  • Mediainfo: Clic para Mostrar Datos Ver
  • Format                      : Matroska
    Format version              : Version 4
    File size                   : 25.7 GiB
    Duration                    : 2 h 5 min
    Overall bit rate mode       : Variable
    Overall bit rate            : 29.4 Mb/s
    Movie name                  : Black Rain (1989) REMUX 1080p Latino - CMHDD
    Encoded date                : UTC 2023-11-26 20:08:56
    Writing application         : mkvmerge v47.0.0 ('Black Flag') 64-bit
    Writing library             : libebml v1.3.10 + libmatroska v1.5.2

    Video
    ID                          : 1
    Format                      : MPEG Video
    Format version              : Version 2
    Format profile              : Main@High
    Format settings             : CustomMatrix / BVOP
    Format settings, BVOP       : Yes
    Format settings, Matrix     : Custom
    Format settings, GOP        : M=3, N=15
    Codec ID                    : V_MPEG2
    Codec ID/Info               : MPEG 1 or 2 Video
    Duration                    : 2 h 5 min
    Bit rate mode               : Variable
    Bit rate                    : 27.2 Mb/s
    Maximum bit rate            : 38.0 Mb/s
    Width                       : 1 920 pixels
    Height                      : 1 080 pixels
    Display aspect ratio        : 16:9
    Frame rate mode             : Constant
    Frame rate                  : 23.976 (24000/1001) FPS
    Color space                 : YUV
    Chroma subsampling          : 4:2:0
    Bit depth                   : 8 bits
    Scan type                   : Progressive
    Compression mode            : Lossy
    Bits/(Pixel*Frame)          : 0.548
    Time code of first frame    : 00:00:00:00
    Time code source            : Group of pictures header
    GOP, Open/Closed            : Open
    GOP, Open/Closed of first f : Closed
    Stream size                 : 23.8 GiB (93%)
    Language                    : English
    Default                     : Yes
    Forced                      : No

    Audio #1
    ID                          : 2
    Format                      : AC-3
    Format/Info                 : Audio Coding 3
    Commercial name             : Dolby Digital
    Codec ID                    : A_AC3
    Duration                    : 2 h 5 min
    Bit rate mode               : Constant
    Bit rate                    : 640 kb/s
    Channel(s)                  : 6 channels
    Channel layout              : L R C LFE Ls Rs
    Sampling rate               : 48.0 kHz
    Frame rate                  : 31.250 FPS (1536 SPF)
    Compression mode            : Lossy
    Stream size                 : 574 MiB (2%)
    Language                    : Spanish
    Service kind                : Complete Main
    Default                     : Yes
    Forced                      : No

    Audio #2
    ID                          : 3
    Format                      : DTS ES XXCH
    Format/Info                 : Digital Theater Systems
    Commercial name             : DTS-ES Discrete
    Codec ID                    : A_DTS
    Duration                    : 2 h 5 min
    Bit rate mode               : Constant
    Bit rate                    : 1 509 kb/s
    Channel(s)                  : 6 channels
    Channel(s)_Original         : 7 channels
    ChannelLayout_Original      : C L R Ls Rs Cb LFE
    Sampling rate               : 48.0 kHz
    Frame rate                  : 93.750 FPS (512 SPF)
    Bit depth                   : 24 bits
    Compression mode            : Lossy
    Stream size                 : 1.32 GiB (5%)
    Language                    : English
    Default                     : No
    Forced                      : No

    Text
    ID                          : 4
    Format                      : PGS
    Muxing mode                 : zlib
    Codec ID                    : S_HDMV/PGS
    Codec ID/Info               : Picture based subtitle format used on BDs/HD-DVDs
    Duration                    : 1 h 58 min
    Bit rate                    : 25.5 kb/s
    Frame rate                  : 0.309 FPS
    Count of elements           : 2202
    Stream size                 : 21.6 MiB (0%)
    Language                    : Spanish
    Default                     : No
    Forced                      : No

    Menu
    00:00:00.000                : en:Opening Credits
    00:02:45.832                : en:Nice Bike
    00:05:06.306                : en:Internal Affairs
    00:11:11.295                : en:Table Manners
    00:14:44.174                : en:Freeze
    00:18:08.087                : en:My Collar, My Case
    00:20:48.580                : en:Dental Work
    00:23:09.846                : en:Local Heat
    00:31:24.299                : en:Observers
    00:46:03.010                : en:Money to Burn
    00:49:09.029                : en:Ties
    00:53:48.642                : en:"What'd I Say"
    00:55:31.119                : en:Foreigner
    00:57:25.817                : en:The Last Bullfught
    01:02:02.093                : en:Just You and Me
    01:07:33.424                : en:Sequins
    01:12:05.362                : en:Gray Areas
    01:15:14.426                : en:The Switch
    01:19:33.810                : en:Missing Plate
    01:23:30.922                : en:Hot Lead
    01:26:43.698                : en:Suspended
    01:32:43.349                : en:On the Edge
    01:36:35.372                : en:Black Rain
    01:40:33.026                : en:Going for It
    01:47:11.258                : en:The Yakuza Code
    01:51:30.308                : en:Payback
    01:57:21.451                : en:Honor
    02:01:32.785                : en:End Credits

     

  • Peso: 25.7 GiB

Sinopsis

Una pareja de policías de Nueva York viaja a Japón para entregar a un mafioso a la policía nipona, pero éste logra escapar. De modo obsesivo decide quedarse en Japón para capturarle, pero choca con las tradiciones del país.

Ficha técnica

Video trailer de la película

Enlaces de descarga

Rip de Bluray

Descargar Black Rain (1989) REMUX 1080p Latino – CMHDD




Aportes de DPeliculasHDmega la pass es:dpeliculashdmega.org Aportes de CinemaniaHD la pass es:cinemaniahdd.com Aportes recientes:cinemaniahdd.net
Guardado en : Acción , Drama , Suspenso

Películas relacionadas

  • La Joven y El Mar (2024) DSNP WEB-DL 1080p Latino

    La Joven y El Mar (2024) DSNP WEB-DL 1080p Latino

    2024
    La Joven y El Mar (2024) DSNP WEB-DL 1080p Latino

    1h 40m 2024

    Descargar La Joven y El Mar (2024) DSNP WEB-DL 1080p Latino. La historia de Trudy Ederle, quien en 1926...

    Director: Joachim Rønning

    Género: Drama

    Actores: Yordan Angelov

  • Vanished Into the Night (2024) NF WEB-DL 1080p Latino

    Vanished Into the Night (2024) NF WEB-DL 1080p Latino

    2024
    Vanished Into the Night (2024) NF WEB-DL 1080p Latino

    1h 33m 2024

    Descargar Vanished Into the Night (2024) NF WEB-DL 1080p Latino. Un padre inmerso en un divorcio problemático...

    Director: Renato De Maria

    Género: Drama

    Actores: Riccardo Scamarcio

  • Goyo (2024) NF WEB-DL 1080p Latino

    Goyo (2024) NF WEB-DL 1080p Latino

    2024
    Goyo (2024) NF WEB-DL 1080p Latino

    1h 47m 2024

    Descargar Goyo (2024) NF WEB-DL 1080p Latino. Goyo es un hombre con Asperger, fanático de Van Gogh,...

    Director: Pablo Discianni

    Género: Comedia

    Actores: Walter Fabian Andrade

  • Inmaculada (2024) HD 1080p Latino

    Inmaculada (2024) HD 1080p Latino

    2024
    Inmaculada (2024) HD 1080p Latino

    1h 29m 2024

    Descargar Inmaculada (2024) HD 1080p Latino. Cecilia, una mujer de fe devota, recibe una calurosa bienvenida...

    Director: Valentina Scuro

    Género: HD 1080p

    Actores: Viviane Florentine Nicolai

descargar Black Rain (1989) REMUX 1080p Latino – CMHDD Full 1080p 1080p gratis, Black Rain (1989) REMUX 1080p Latino – CMHDD Full 1080p mega 1 link, Black Rain (1989) REMUX 1080p Latino – CMHDD Full 1080p pelicula completa, descargar Black Rain (1989) REMUX 1080p Latino – CMHDD Full 1080p gratis en mega.

Black Rain (1989) REMUX 1080p Latino – CMHDD pelicula full hd, Black Rain (1989) REMUX 1080p Latino – CMHDD mega latino, Black Rain (1989) REMUX 1080p Latino – CMHDD 4k latino, Black Rain (1989) REMUX 1080p Latino – CMHDD pelicula completa, Black Rain (1989) REMUX 1080p Latino – CMHDD descargar gratis, descargar Black Rain (1989) REMUX 1080p Latino – CMHDD pelicula latino, Black Rain (1989) REMUX 1080p Latino – CMHDD 1 link mega, Black Rain (1989) REMUX 1080p Latino – CMHDD 1 link google drive, Black Rain (1989) REMUX 1080p Latino – CMHDD hd 1080p latino.
Comentarios 0