×

¿Problemas para descargar con Mozilla, EDGE? Deshabilita la opción "Abrir vinculos en una pestaña nueva" tal como lo muestra ésta imagen.

Black Panther: Wakanda por siempre (2022) REMUX 1080p Latino

534 vistas

Información de Black Panther: Wakanda por siempre (2022) REMUX 1080p Latino

Datos de la película

  • Calidad: Full 1080p
  • Audio: Se especifica abajo de la Sinopsis
  • Subtitulos: Español Latino PGS - Ingles PGS
  • Resolución: 1920x1080p
  • Formato: MKV
  • Codec: H.264
  • Encoder: Melkor
  • Mediainfo: Clic para Mostrar Datos Ver
  • BP. Wakanda Forever (2022) REPACK BDREMUX 1080p Latino.mkv
    Format                      : Matroska
    Format version              : Version 4
    File size                   : 34.8 GiB
    Duration                    : 2 h 41 min
    Overall bit rate mode       : Variable
    Overall bit rate            : 30.9 Mb/s
    Movie name                  : Black Panther. Wakanda Forever (2022) CinemaniaHDD.Net
    Encoded date                : UTC 2023-02-26 06:22:25
    Writing application         : mkvmerge v56.1.0 ('My Friend') 64-bit
    Writing library             : libebml v1.4.2 + libmatroska v1.6.4
    Attachments                 : CINEMANIAHD.png
    Site                        : CinemaniaHDD.Net
    Uploader                    : Melkor

    Video
    ID                          : 1
    ID in the original source m : 4113 (0x1011)
    Format                      : AVC
    Format/Info                 : Advanced Video Codec
    Format profile              : High@L4.1
    Format settings             : CABAC / 4 Ref Frames
    Format settings, CABAC      : Yes
    Format settings, Reference  : 4 frames
    Format settings, GOP        : M=3, N=12
    Codec ID                    : V_MPEG4/ISO/AVC
    Duration                    : 2 h 41 min
    Bit rate mode               : Variable
    Bit rate                    : 24.3 Mb/s
    Maximum bit rate            : 34.2 Mb/s
    Width                       : 1 920 pixels
    Height                      : 1 080 pixels
    Display aspect ratio        : 16:9
    Frame rate mode             : Constant
    Frame rate                  : 23.976 (24000/1001) FPS
    Color space                 : YUV
    Chroma subsampling          : 4:2:0
    Bit depth                   : 8 bits
    Scan type                   : Progressive
    Bits/(Pixel*Frame)          : 0.490
    Stream size                 : 27.4 GiB (79%)
    Title                       : REMUX HD1080p [CinemaniaHDD]
    Language                    : English
    Default                     : Yes
    Forced                      : Yes
    Original source medium      : Blu-ray

    Audio #1
    ID                          : 2
    Format                      : AC-3
    Format/Info                 : Audio Coding 3
    Commercial name             : Dolby Digital
    Codec ID                    : A_AC3
    Duration                    : 2 h 41 min
    Bit rate mode               : Constant
    Bit rate                    : 640 kb/s
    Channel(s)                  : 6 channels
    Channel layout              : L R C LFE Ls Rs
    Sampling rate               : 48.0 kHz
    Frame rate                  : 31.250 FPS (1536 SPF)
    Compression mode            : Lossy
    Stream size                 : 738 MiB (2%)
    Title                       : Español Latino AC3 [CinemaniaHDD]
    Language                    : Spanish
    Service kind                : Complete Main
    Default                     : Yes
    Forced                      : Yes

    Audio #2
    ID                          : 3
    ID in the original source m : 4354 (0x1102)
    Format                      : E-AC-3
    Format/Info                 : Enhanced AC-3
    Commercial name             : Dolby Digital Plus
    Format profile              : Blu-ray Disc
    Codec ID                    : A_EAC3
    Duration                    : 2 h 41 min
    Bit rate mode               : Constant
    Bit rate                    : 1 024 kb/s
    Channel(s)                  : 8 channels
    Channel layout              : L R C LFE Ls Rs Lb Rb
    Sampling rate               : 48.0 kHz
    Frame rate                  : 31.250 FPS (1536 SPF)
    Compression mode            : Lossy
    Stream size                 : 1.15 GiB (3%)
    Title                       : Español Latino EAC3 [CinemaniaHDD]
    Language                    : Spanish
    Service kind                : Complete Main
    Default                     : No
    Forced                      : No
    Original source medium      : Blu-ray

    Audio #3
    ID                          : 4
    ID in the original source m : 4352 (0x1100)
    Format                      : DTS XLL
    Format/Info                 : Digital Theater Systems
    Commercial name             : DTS-HD Master Audio
    Codec ID                    : A_DTS
    Duration                    : 2 h 41 min
    Bit rate mode               : Variable
    Bit rate                    : 4 844 kb/s
    Channel(s)                  : 8 channels
    Channel layout              : C L R LFE Lb Rb Lss Rss
    Sampling rate               : 48.0 kHz
    Frame rate                  : 93.750 FPS (512 SPF)
    Bit depth                   : 24 bits
    Compression mode            : Lossless
    Stream size                 : 5.46 GiB (16%)
    Title                       : Ingles [CinemaniaHDD]
    Language                    : English
    Default                     : No
    Forced                      : No
    Original source medium      : Blu-ray

    Text #1
    ID                          : 5
    ID in the original source m : 4770 (0x12A2)
    Format                      : PGS
    Muxing mode                 : zlib
    Codec ID                    : S_HDMV/PGS
    Codec ID/Info               : Picture based subtitle format used on BDs/HD-DVDs
    Duration                    : 2 h 39 min
    Bit rate                    : 2 180 b/s
    Count of elements           : 366
    Stream size                 : 2.48 MiB (0%)
    Title                       : Forzados-PGS [CinemaniaHDD]
    Language                    : Spanish
    Default                     : No
    Forced                      : No
    Original source medium      : Blu-ray

    Text #2
    ID                          : 6
    ID in the original source m : 4769 (0x12A1)
    Format                      : PGS
    Muxing mode                 : zlib
    Codec ID                    : S_HDMV/PGS
    Codec ID/Info               : Picture based subtitle format used on BDs/HD-DVDs
    Duration                    : 2 h 41 min
    Bit rate                    : 27.3 kb/s
    Count of elements           : 3476
    Stream size                 : 31.5 MiB (0%)
    Title                       : Español-PGS [CinemaniaHDD]
    Language                    : Spanish
    Default                     : No
    Forced                      : No
    Original source medium      : Blu-ray

    Text #3
    ID                          : 7
    Format                      : PGS
    Muxing mode                 : zlib
    Codec ID                    : S_HDMV/PGS
    Codec ID/Info               : Picture based subtitle format used on BDs/HD-DVDs
    Duration                    : 2 h 33 min
    Bit rate                    : 18.6 kb/s
    Count of elements           : 3496
    Stream size                 : 20.5 MiB (0%)
    Title                       : Ingles-PGS [CinemaniaHDD]
    Language                    : English
    Default                     : No
    Forced                      : No

    Text #4
    ID                          : 8
    Format                      : UTF-8
    Codec ID                    : S_TEXT/UTF8
    Codec ID/Info               : UTF-8 Plain Text
    Duration                    : 2 h 39 min
    Bit rate                    : 3 b/s
    Count of elements           : 183
    Stream size                 : 3.79 KiB (0%)
    Title                       : Forzados-SRT [CinemaniaHDD]
    Language                    : Spanish
    Default                     : Yes
    Forced                      : Yes

    Text #5
    ID                          : 9
    Format                      : UTF-8
    Codec ID                    : S_TEXT/UTF8
    Codec ID/Info               : UTF-8 Plain Text
    Duration                    : 2 h 41 min
    Bit rate                    : 43 b/s
    Count of elements           : 1738
    Stream size                 : 51.0 KiB (0%)
    Title                       : Español-SRT [CinemaniaHDD]
    Language                    : Spanish
    Default                     : No
    Forced                      : No

    Menu
    00:00:00.000                : Chapter 01
    00:06:23.716                : Chapter 02
    00:11:47.581                : Chapter 03
    00:18:45.916                : Chapter 04
    00:23:16.686                : Chapter 05
    00:29:52.415                : Chapter 06
    00:33:12.949                : Chapter 07
    00:35:17.740                : Chapter 08
    00:39:54.183                : Chapter 09
    00:46:41.715                : Chapter 10
    00:53:11.021                : Chapter 11
    00:58:20.997                : Chapter 12
    01:02:33.166                : Chapter 13
    01:04:52.388                : Chapter 14
    01:12:35.434                : Chapter 15
    01:21:47.193                : Chapter 16
    01:28:29.345                : Chapter 17
    01:40:24.018                : Chapter 18
    01:44:45.195                : Chapter 19
    01:53:09.407                : Chapter 20
    01:58:03.576                : Chapter 21
    02:04:36.177                : Chapter 22
    02:10:13.680                : Chapter 23
    02:19:33.448                : Chapter 24
    02:24:00.882                : Chapter 25
    02:31:27.661                : Chapter 26
    02:33:54.308                : Chapter 27

  • Peso: 34.8 GiB

Sinopsis

Descargar Black Panther: Wakanda por siempre (2022) REMUX 1080p Latino. La reina Ramonda, Shuri, M’Baku, Okoye y las Dora Milaje, luchan para proteger su nación de la injerencia de potencias mundiales a raíz de la muerte del rey T’Challa. Mientras los wakandianos se esfuerzan por adaptarse a su nueva etapa, los héroes deben actuar unidos, con la ayuda del Perro de la Guerra Nakia y Everett Ross, y forzar un nuevo destino para el reino de Wakanda.

Español Latino EAC3 7.1 % AC3 5.1 BD – Ingles DTS-HD 7.1 BD

Nota: Actualizado version final con video limpio sin subtitulos pegados al video (Solo Disponible para VIP!!!) Enjoy 🙂

Ficha técnica

Video trailer de la película

Enlaces de descarga

Rip de Bluray

Descargar Black Panther: Wakanda por siempre (2022) REMUX 1080p Latino




Aportes de DPeliculasHDmega la pass es:dpeliculashdmega.org Aportes de CinemaniaHD la pass es:cinemaniahdd.com Aportes recientes:cinemaniahdd.net
Guardado en : Acción , Aventura , Ciencia ficción , Remux

Películas relacionadas

descargar Black Panther: Wakanda por siempre (2022) REMUX 1080p Latino Full 1080p 1080p gratis, Black Panther: Wakanda por siempre (2022) REMUX 1080p Latino Full 1080p mega 1 link, Black Panther: Wakanda por siempre (2022) REMUX 1080p Latino Full 1080p pelicula completa, descargar Black Panther: Wakanda por siempre (2022) REMUX 1080p Latino Full 1080p gratis en mega.

Black Panther: Wakanda por siempre (2022) REMUX 1080p Latino pelicula full hd, Black Panther: Wakanda por siempre (2022) REMUX 1080p Latino mega latino, Black Panther: Wakanda por siempre (2022) REMUX 1080p Latino 4k latino, Black Panther: Wakanda por siempre (2022) REMUX 1080p Latino pelicula completa, Black Panther: Wakanda por siempre (2022) REMUX 1080p Latino descargar gratis, descargar Black Panther: Wakanda por siempre (2022) REMUX 1080p Latino pelicula latino, Black Panther: Wakanda por siempre (2022) REMUX 1080p Latino 1 link mega, Black Panther: Wakanda por siempre (2022) REMUX 1080p Latino 1 link google drive, Black Panther: Wakanda por siempre (2022) REMUX 1080p Latino hd 1080p latino.
Comentarios 0