×

¿Problemas para descargar con Mozilla, EDGE? Deshabilita la opción "Abrir vinculos en una pestaña nueva" tal como lo muestra ésta imagen.

Black Panther: Wakanda Forever (2022) HD 1080p Latino

432 vistas

Información de Black Panther: Wakanda Forever (2022) HD 1080p Latino

Datos de la película

  • Calidad: 1080p
  • Audio: Español Latino AC3 5.1 BLURAY - Ingles AC3 5.1 BLURAY
  • Subtitulos: Español Latino SRT- FORZADOS SRT
  • Resolución: 1920x804p
  • Formato: MKV
  • Codec: H.264
  • Encoder: Melkor
  • Mediainfo: Clic para Mostrar Datos Ver
  • Black Panther. Wakanda Forever (2022) HD 1080p Latino.mkv Format                      : Matroska Format version              : Version 4 File size                   : 4.58 GiB Duration                    : 2 h 41 min Overall bit rate            : 4 066 kb/s Movie name                  : Black Panther. Wakanda Forever (2022) CinemaniaHDD.Net Encoded date                : UTC 2023-01-31 03:06:29 Writing application         : mkvmerge v56.1.0 ('My Friend') 64-bit Writing library             : libebml v1.4.2 + libmatroska v1.6.4 Attachments                 : CINEMANIAHD.png Video ID                          : 1 Format                      : AVC Format/Info                 : Advanced Video Codec Format profile              : High@L4.1 Format settings             : CABAC / 5 Ref Frames Format settings, CABAC      : Yes Format settings, Reference  : 5 frames Codec ID                    : V_MPEG4/ISO/AVC Duration                    : 2 h 41 min Bit rate                    : 2 976 kb/s Width                       : 1 920 pixels Height                      : 804 pixels Display aspect ratio        : 2.40:1 Frame rate mode             : Constant Frame rate                  : 23.976 (24000/1001) FPS Color space                 : YUV Chroma subsampling          : 4:2:0 Bit depth                   : 8 bits Scan type                   : Progressive Bits/(Pixel*Frame)          : 0.080 Stream size                 : 3.35 GiB (73%) Title                       : HD1080p [CinemaniaHDD] Writing library             : x264 core 163 r3059 b684ebe0 Encoding settings           : cabac=1 / ref=5 / deblock=1:-1:-1 / analyse=0x3:0x133 / me=umh / subme=9 / psy=1 / psy_rd=1.00:0.15 / mixed_ref=1 / me_range=16 / chroma_me=1 / trellis=2 / 8x8dct=1 / cqm=0 / deadzone=21,11 / fast_pskip=1 / chroma_qp_offset=-3 / threads=24 / lookahead_threads=2 / sliced_threads=0 / nr=0 / decimate=1 / interlaced=0 / bluray_compat=0 / constrained_intra=0 / bframes=3 / b_pyramid=2 / b_adapt=2 / b_bias=0 / direct=3 / weightb=1 / open_gop=0 / weightp=2 / keyint=240 / keyint_min=24 / scenecut=40 / intra_refresh=0 / rc_lookahead=60 / rc=crf / mbtree=1 / crf=21.5 / qcomp=0.60 / qpmin=0 / qpmax=69 / qpstep=4 / vbv_maxrate=62500 / vbv_bufsize=78125 / crf_max=0.0 / nal_hrd=none / filler=0 / ip_ratio=1.40 / aq=1:1.00 Default                     : Yes Forced                      : Yes Color range                 : Limited Color primaries             : BT.709 Transfer characteristics    : BT.709 Matrix coefficients         : BT.709 Audio #1 ID                          : 2 Format                      : AC-3 Format/Info                 : Audio Coding 3 Commercial name             : Dolby Digital Codec ID                    : A_AC3 Duration                    : 2 h 41 min Bit rate mode               : Constant Bit rate                    : 640 kb/s Channel(s)                  : 6 channels Channel layout              : L R C LFE Ls Rs Sampling rate               : 48.0 kHz Frame rate                  : 31.250 FPS (1536 SPF) Compression mode            : Lossy Delay relative to video     : -5 ms Stream size                 : 738 MiB (16%) Title                       : Español Latino [CinemaniaHDD] Language                    : Spanish Service kind                : Complete Main Default                     : Yes Forced                      : Yes Audio #2 ID                          : 3 Format                      : AC-3 Format/Info                 : Audio Coding 3 Commercial name             : Dolby Digital Codec ID                    : A_AC3 Duration                    : 2 h 41 min Bit rate mode               : Constant Bit rate                    : 448 kb/s Channel(s)                  : 6 channels Channel layout              : L R C LFE Ls Rs Sampling rate               : 48.0 kHz Frame rate                  : 31.250 FPS (1536 SPF) Compression mode            : Lossy Delay relative to video     : -5 ms Stream size                 : 517 MiB (11%) Title                       : Ingles [CinemaniaHDD] Language                    : English Service kind                : Complete Main Default                     : No Forced                      : No Text #1 ID                          : 4 Format                      : UTF-8 Codec ID                    : S_TEXT/UTF8 Codec ID/Info               : UTF-8 Plain Text Duration                    : 2 h 39 min Bit rate                    : 3 b/s Count of elements           : 183 Stream size                 : 3.79 KiB (0%) Title                       : Forzados-SRT [CinemaniaHDD] Language                    : Spanish Default                     : Yes Forced                      : Yes Text #2 ID                          : 5 Format                      : UTF-8 Codec ID                    : S_TEXT/UTF8 Codec ID/Info               : UTF-8 Plain Text Duration                    : 2 h 41 min Bit rate                    : 43 b/s Count of elements           : 1738 Stream size                 : 51.0 KiB (0%) Title                       : Español-SRT [CinemaniaHDD] Language                    : Spanish Default                     : No Forced                      : No Text #3 ID                          : 6 Format                      : UTF-8 Codec ID                    : S_TEXT/UTF8 Codec ID/Info               : UTF-8 Plain Text Duration                    : 2 h 37 min Bit rate                    : 44 b/s Count of elements           : 1813 Stream size                 : 51.2 KiB (0%) Title                       : Ingles-SRT [CinemaniaHDD] Language                    : English Default                     : No Forced                      : No Menu 00:00:00.000                : Chapter 01 00:06:23.717                : Chapter 02 00:11:47.582                : Chapter 03 00:18:45.916                : Chapter 04 00:23:16.687                : Chapter 05 00:29:52.416                : Chapter 06 00:33:12.949                : Chapter 07 00:35:17.741                : Chapter 08 00:39:54.183                : Chapter 09 00:46:41.716                : Chapter 10 00:53:11.021                : Chapter 11 00:58:20.997                : Chapter 12 01:02:33.166                : Chapter 13 01:04:52.388                : Chapter 14 01:12:35.434                : Chapter 15 01:21:47.194                : Chapter 16 01:28:29.346                : Chapter 17 01:40:24.018                : Chapter 18 01:44:45.196                : Chapter 19 01:53:09.408                : Chapter 20 01:58:03.576                : Chapter 21 02:04:36.177                : Chapter 22 02:10:13.681                : Chapter 23 02:19:33.448                : Chapter 24 02:24:00.882                : Chapter 25 02:31:27.662                : Chapter 26 02:33:54.308                : Chapter 27 ############################## Black Panther. Wakanda Forever (2022) BDRip 1080p Latino[CMHDD].mkv File size                   : 12.7 GiB Duration                    : 2 h 41 min Video Format                      : AVC Bit rate                    : 9 078 kb/s Width                       : 1 920 pixels Height                      : 804 pixels Frame rate                  : 23.976 (24000/1001) FPS Audio #1 Format                      : AC-3 Bit rate                    : 640 kb/s Channel(s)                  : 6 channels Sampling rate               : 48.0 kHz Title                       : Español Latino [CinemaniaHDD] Language                    : Spanish Audio #2 Format                      : DTS Bit rate                    : 1 509 kb/s Channel(s)                  : 6 channels Sampling rate               : 48.0 kHz Title                       : Ingles [CinemaniaHDD] Language                    : English Subtitulos: Forzados-PGS, Español-PGS, Ingles-SRT Chapters: Yes
  • Peso: 4.58 GiB | 12.7 GiB

Sinopsis

Descargar Black Panther: Wakanda Forever (2022) BDRip 1080p Latino. La reina Ramonda, Shuri, M’Baku, Okoye y las Dora Milaje, luchan para proteger su nación de la injerencia de potencias mundiales a raíz de la muerte del rey T’Challa. Mientras los wakandianos se esfuerzan por adaptarse a su nueva etapa, los héroes deben actuar unidos, con la ayuda del Perro de la Guerra Nakia y Everett Ross, y forzar un nuevo destino para el reino de Wakanda.

Nota: Version Ligera & Pesada!!!

Ficha técnica

Video trailer de la película

Enlaces de descarga

Rip de Bluray

Descargar Black Panther: Wakanda Forever (2022) HD 1080p Latino




Aportes de DPeliculasHDmega la pass es:dpeliculashdmega.org Aportes de CinemaniaHD la pass es:cinemaniahdd.com Aportes recientes:cinemaniahdd.net

Películas relacionadas

  • The Lego Movie (2014) REMUX 4K HDR Latino – CMHDD

    The Lego Movie (2014) REMUX 4K HDR Latino – CMHDD

    2014
    The Lego Movie (2014) REMUX 4K HDR Latino – CMHDD

    1h 40m 2014

    Película basada en los clásicos juguetes LEGO. Emmet, el protagonista de la película, trabaja como...

    Director: Vernessa Cook

    Género: Animación

    Actores: Will Forte

  • The Lego Movie (2014) REMUX 1080p Latino – CMHDD

    The Lego Movie (2014) REMUX 1080p Latino – CMHDD

    2014
    The Lego Movie (2014) REMUX 1080p Latino – CMHDD

    1h 40m 2014

    Película basada en los clásicos juguetes LEGO. Emmet, el protagonista de la película, trabaja como...

    Director: Vernessa Cook

    Género: Animación

    Actores: Will Forte

  • Familia Nacional (2023) WEB-DL 1080p Latino

    Familia Nacional (2023) WEB-DL 1080p Latino

    2023
    Familia Nacional (2023) WEB-DL 1080p Latino

    1h 43m 2023

    Descargar Familia Nacional (2023) WEB-DL 1080p Latino. Don Poli es el patriarca de una familia disfuncional...

    Director: Marcelo Tobar

    Género: Acción

    Actores: Tadeo Tovar

descargar Black Panther: Wakanda Forever (2022) HD 1080p Latino 1080p 1080p gratis, Black Panther: Wakanda Forever (2022) HD 1080p Latino 1080p mega 1 link, Black Panther: Wakanda Forever (2022) HD 1080p Latino 1080p pelicula completa, descargar Black Panther: Wakanda Forever (2022) HD 1080p Latino 1080p gratis en mega.

Black Panther: Wakanda Forever (2022) HD 1080p Latino pelicula full hd, Black Panther: Wakanda Forever (2022) HD 1080p Latino mega latino, Black Panther: Wakanda Forever (2022) HD 1080p Latino 4k latino, Black Panther: Wakanda Forever (2022) HD 1080p Latino pelicula completa, Black Panther: Wakanda Forever (2022) HD 1080p Latino descargar gratis, descargar Black Panther: Wakanda Forever (2022) HD 1080p Latino pelicula latino, Black Panther: Wakanda Forever (2022) HD 1080p Latino 1 link mega, Black Panther: Wakanda Forever (2022) HD 1080p Latino 1 link google drive, Black Panther: Wakanda Forever (2022) HD 1080p Latino hd 1080p latino.
Comentarios 0