×

¿Problemas para descargar con Mozilla, EDGE? Deshabilita la opción "Abrir vinculos en una pestaña nueva" tal como lo muestra ésta imagen.

Black Panther (2018) REMUX 1080p Latino

282 vistas

Información de Black Panther (2018) REMUX 1080p Latino

Datos de la película

  • Calidad: Full 1080p
  • Audio: Español Latino AC3 5.1 BLURAY - Ingles DTS-HD Master 7.1 BLURAY
  • Subtitulos: Español Latino PGS - Ingles PGS
  • Resolución: 1920x1080p
  • Formato: MKV
  • Codec: H.264
  • Encoder: CinefiloCool
  • Mediainfo: Clic para Mostrar Datos Ver
  • Black Panther (2018) REMUX 1080p Latino-CMHDD.mkv Format                      : Matroska Format version              : Version 4 File size                   : 27.5 GiB Duration                    : 2 h 14 min Overall bit rate mode       : Variable Overall bit rate            : 29.2 Mb/s Movie name                  : Black Panther (2018) CinemaniaHDD.Net Encoded date                : UTC 2023-02-05 05:27:33 Writing application         : mkvmerge v56.1.0 ('My Friend') 64-bit Writing library             : libebml v1.4.2 + libmatroska v1.6.4 Attachments                 : CINEMANIAHD.png Video ID                          : 1 ID in the original source m : 4113 (0x1011) Format                      : AVC Format/Info                 : Advanced Video Codec Format profile              : High@L4.1 Format settings             : CABAC / 4 Ref Frames Format settings, CABAC      : Yes Format settings, Reference  : 4 frames Codec ID                    : V_MPEG4/ISO/AVC Duration                    : 2 h 14 min Bit rate mode               : Variable Bit rate                    : 23.6 Mb/s Maximum bit rate            : 35.0 Mb/s Width                       : 1 920 pixels Height                      : 1 080 pixels Display aspect ratio        : 16:9 Frame rate mode             : Constant Frame rate                  : 23.976 (24000/1001) FPS Color space                 : YUV Chroma subsampling          : 4:2:0 Bit depth                   : 8 bits Scan type                   : Progressive Bits/(Pixel*Frame)          : 0.475 Stream size                 : 22.2 GiB (81%) Title                       : REMUX HD1080p [CinemaniaHDD] Default                     : Yes Forced                      : Yes Original source medium      : Blu-ray Audio #1 ID                          : 2 ID in the original source m : 4355 (0x1103) Format                      : AC-3 Format/Info                 : Audio Coding 3 Commercial name             : Dolby Digital Codec ID                    : A_AC3 Duration                    : 2 h 14 min Bit rate mode               : Constant Bit rate                    : 640 kb/s Channel(s)                  : 6 channels Channel layout              : L R C LFE Ls Rs Sampling rate               : 48.0 kHz Frame rate                  : 31.250 FPS (1536 SPF) Compression mode            : Lossy Stream size                 : 616 MiB (2%) Title                       : Español Latino [CinemaniaHDD] Language                    : Spanish Service kind                : Complete Main Default                     : Yes Forced                      : Yes Original source medium      : Blu-ray Audio #2 ID                          : 3 ID in the original source m : 4352 (0x1100) Format                      : DTS XLL Format/Info                 : Digital Theater Systems Commercial name             : DTS-HD Master Audio Codec ID                    : A_DTS Duration                    : 2 h 14 min Bit rate mode               : Variable Bit rate                    : 4 981 kb/s Channel(s)                  : 8 channels Channel layout              : C L R LFE Lb Rb Lss Rss Sampling rate               : 48.0 kHz Frame rate                  : 93.750 FPS (512 SPF) Bit depth                   : 24 bits Compression mode            : Lossless Stream size                 : 4.68 GiB (17%) Title                       : Ingles [CinemaniaHDD] Language                    : English Default                     : No Forced                      : No Original source medium      : Blu-ray Text #1 ID                          : 4 ID in the original source m : 4616 (0x1208) Format                      : PGS Muxing mode                 : zlib Codec ID                    : S_HDMV/PGS Codec ID/Info               : Picture based subtitle format used on BDs/HD-DVDs Duration                    : 2 h 10 min Bit rate                    : 1 009 b/s Count of elements           : 152 Stream size                 : 968 KiB (0%) Title                       : Forzados-PGS [CinemaniaHDD] Language                    : Spanish Default                     : No Forced                      : No Original source medium      : Blu-ray Text #2 ID                          : 5 ID in the original source m : 4610 (0x1202) Format                      : PGS Muxing mode                 : zlib Codec ID                    : S_HDMV/PGS Codec ID/Info               : Picture based subtitle format used on BDs/HD-DVDs Duration                    : 2 h 14 min Bit rate                    : 26.9 kb/s Count of elements           : 2906 Stream size                 : 25.9 MiB (0%) Title                       : Español-PGS [CinemaniaHDD] Language                    : Spanish Default                     : No Forced                      : No Original source medium      : Blu-ray Text #3 ID                          : 6 ID in the original source m : 4608 (0x1200) Format                      : PGS Muxing mode                 : zlib Codec ID                    : S_HDMV/PGS Codec ID/Info               : Picture based subtitle format used on BDs/HD-DVDs Duration                    : 2 h 14 min Bit rate                    : 32.6 kb/s Count of elements           : 3670 Stream size                 : 31.2 MiB (0%) Title                       : Ingles [CinemaniaHDD] Language                    : English Default                     : No Forced                      : No Original source medium      : Blu-ray Text #4 ID                          : 7 Format                      : UTF-8 Codec ID                    : S_TEXT/UTF8 Codec ID/Info               : UTF-8 Plain Text Duration                    : 2 h 10 min Bit rate                    : 1 b/s Count of elements           : 76 Stream size                 : 1.43 KiB (0%) Title                       : Forzados-SRT [CinemaniaHDD] Language                    : Spanish Default                     : Yes Forced                      : Yes Text #5 ID                          : 8 Format                      : UTF-8 Codec ID                    : S_TEXT/UTF8 Codec ID/Info               : UTF-8 Plain Text Duration                    : 2 h 14 min Bit rate                    : 43 b/s Count of elements           : 1453 Stream size                 : 42.6 KiB (0%) Title                       : Español-SRT [CinemaniaHDD] Language                    : Spanish Default                     : No Forced                      : No Menu 00:00:00.000                : Chapter 01 00:06:56.290                : Chapter 02 00:12:02.805                : Chapter 03 00:19:12.359                : Chapter 04 00:28:32.961                : Chapter 05 00:33:11.698                : Chapter 06 00:40:57.496                : Chapter 07 00:48:34.036                : Chapter 08 00:53:46.097                : Chapter 09 01:01:57.338                : Chapter 10 01:08:33.025                : Chapter 11 01:16:46.768                : Chapter 12 01:22:24.022                : Chapter 13 01:31:21.434                : Chapter 14 01:41:15.360                : Chapter 15 01:50:56.483                : Chapter 16 01:59:16.941                : Chapter 17 02:02:43.647                : Chapter 18
  • Peso: 27.5 GiB

Sinopsis

Descargar Black Panther (2018) REMUX 1080p Latino. Después de los acontecimientos de «Capitán América: Civil War», T’Challa vuelve a casa, la nación aislada y muy avanzada tecnológicamente de Wakanda, para ser proclamado Rey. Pero la reaparición de un viejo enemigo pone a prueba el temple de T’Challa como Rey y Black Panther ya que se ve arrastrado a un conflicto que pone en peligro todo el destino de Wakanda y del mundo.

Ficha técnica

Video trailer de la película

Enlaces de descarga

Rip de Bluray

Descargar Black Panther (2018) REMUX 1080p Latino


Aportes de DPeliculasHDmega la pass es:dpeliculashdmega.org Aportes de CinemaniaHD la pass es:cinemaniahdd.com Aportes recientes:cinemaniahdd.net
Guardado en : Acción , Aventura , Ciencia ficción , Remux

Películas relacionadas

  • Combate clandestino (2024) AMZN WEB-DL 1080p Latino

    Combate clandestino (2024) AMZN WEB-DL 1080p Latino

    2024
    Combate clandestino (2024) AMZN WEB-DL 1080p Latino

    1h 30m 2024

    Descargar Combate clandestino (2024) AMZN WEB-DL 1080p Latino. Un ex soldado a la deriva se convierte...

    Director: Christian Sesma

    Género: Acción

    Actores: Tyler Wombles

  • ¡Patos! (2023) HD 1080p Latino

    ¡Patos! (2023) HD 1080p Latino

    2023
    ¡Patos! (2023) HD 1080p Latino

    1h 23m 2023

    Descargar ¡Patos! (2023) HD 1080p Latino. Después de que una familia de patos migratorios aterriza...

    Director: Guy-Laurent Homsy

    Género: Acción

    Actores: Zeno Robinson

  • ¡Patos! (2023) PLACEBO Full HD 1080p Latino

    ¡Patos! (2023) PLACEBO Full HD 1080p Latino

    2023
    ¡Patos! (2023) PLACEBO Full HD 1080p Latino

    1h 23m 2023

    Descargar ¡Patos! (2023) PLACEBO Full HD 1080p Latino. Después de que una familia de patos migratorios...

    Director: Guy-Laurent Homsy

    Género: Acción

    Actores: Zeno Robinson

  • ¡Patos! (2023) REMUX 1080p Latino

    ¡Patos! (2023) REMUX 1080p Latino

    2023
    ¡Patos! (2023) REMUX 1080p Latino

    1h 23m 2023

    Descargar ¡Patos! (2023) REMUX 1080p Latino. Después de que una familia de patos migratorios aterriza...

    Director: Guy-Laurent Homsy

    Género: Acción

    Actores: Zeno Robinson

descargar Black Panther (2018) REMUX 1080p Latino Full 1080p 1080p gratis, Black Panther (2018) REMUX 1080p Latino Full 1080p mega 1 link, Black Panther (2018) REMUX 1080p Latino Full 1080p pelicula completa, descargar Black Panther (2018) REMUX 1080p Latino Full 1080p gratis en mega.

Black Panther (2018) REMUX 1080p Latino pelicula full hd, Black Panther (2018) REMUX 1080p Latino mega latino, Black Panther (2018) REMUX 1080p Latino 4k latino, Black Panther (2018) REMUX 1080p Latino pelicula completa, Black Panther (2018) REMUX 1080p Latino descargar gratis, descargar Black Panther (2018) REMUX 1080p Latino pelicula latino, Black Panther (2018) REMUX 1080p Latino 1 link mega, Black Panther (2018) REMUX 1080p Latino 1 link google drive, Black Panther (2018) REMUX 1080p Latino hd 1080p latino.
Comentarios 0