×

¿Problemas para descargar con Mozilla, EDGE? Deshabilita la opción "Abrir vinculos en una pestaña nueva" tal como lo muestra ésta imagen.

Black Panther (2018) IMAX Full HD 1080p Latino

6.447 vistas

Información de Black Panther (2018) IMAX Full HD 1080p Latino

Datos de la película

  • Calidad: Full 1080p
  • Audio: Español Latino AC3 5.1 BLURAY - Ingles DTS 5.1 BLURAY
  • Subtitulos: Español Latino PGS - Ingles PGS
  • Resolución: 1920x1080p
  • Formato: MKV
  • Codec: H.264
  • Encoder: Dracarys
  • Mediainfo: Clic para Mostrar Datos Ver
  • Format                                   : Matroska Format version                           : Version 4 / Version 2 File size                                : 5.49 GiB Duration                                 : 2 h 14 min Overall bit rate                         : 5 842 kb/s Movie name                               : CinemaniaHDD.net Encoded date                             : UTC 2018-05-29 05:17:32 / UTC 2018-05-29T01:40:45Z Writing application                      : mkvmerge v15.0.0 ('Duel with the Devil') 64-bit Writing library                          : libebml v1.3.5 + libmatroska v1.4.5 / Lavf57.7.2 Video ID                                       : 1 Format                                   : AVC Format/Info                              : Advanced Video Codec Format profile                           : High@L4.1 Format settings                          : CABAC / 4 Ref Frames Format settings, CABAC                   : Yes Format settings, RefFrames               : 4 frames Codec ID                                 : V_MPEG4/ISO/AVC Duration                                 : 2 h 14 min Bit rate                                 : 3 576 kb/s Width                                    : 1 920 pixels Height                                   : 1 080 pixels Display aspect ratio                     : 16:9 Frame rate mode                          : Constant Frame rate                               : 23.976 (24000/1001) FPS Color space                              : YUV Chroma subsampling                       : 4:2:0 Bit depth                                : 8 bits Scan type                                : Progressive Bits/(Pixel*Frame)                       : 0.072 Stream size                              : 3.36 GiB (61%) Title                                    : Black Panther (2018) [IMAX] Full 1080p Latino Writing library                          : x264 core 155 r2893 b00bcaf Encoding settings                        : cabac=1 / ref=4 / deblock=1:0:0 / analyse=0x3:0x133 / me=esa / subme=10 / psy=1 / psy_rd=1.00:0.00 / mixed_ref=1 / me_range=24 / chroma_me=1 / trellis=2 / 8x8dct=1 / cqm=0 / deadzone=21,11 / fast_pskip=1 / chroma_qp_offset=-2 / threads=34 / lookahead_threads=5 / sliced_threads=0 / nr=0 / decimate=1 / interlaced=0 / bluray_compat=0 / constrained_intra=0 / bframes=8 / b_pyramid=2 / b_adapt=2 / b_bias=0 / direct=3 / weightb=1 / open_gop=0 / weightp=2 / keyint=240 / keyint_min=24 / scenecut=40 / intra_refresh=0 / rc_lookahead=60 / rc=crf / mbtree=1 / crf=20.0 / qcomp=0.60 / qpmin=0 / qpmax=69 / qpstep=4 / vbv_maxrate=62500 / vbv_bufsize=78125 / crf_max=0.0 / nal_hrd=none / filler=0 / ip_ratio=1.40 / aq=1:1.00 Language                                 : English Default                                  : Yes Forced                                   : No Color range                              : Limited Color primaries                          : BT.709 Transfer characteristics                 : BT.709 Matrix coefficients                      : BT.709 Statistics Tags Issue                    : mkvmerge v15.0.0 ('Duel with the Devil') 64-bit 2018-05-29 05:17:32 / mkvmerge v15.0.0 ('Duel with the Devil') 64-bit 2018-05-29 05:17:32 / UTC 2018-05-29T01:40:45Z FromStats_BitRate                        : 3681440 FromStats_Duration                       : 02:14:33.107000000 FromStats_FrameCount                     : 193561 FromStats_StreamSize                     : 3715082458 Audio #1 ID                                       : 2 Format                                   : AC-3 Format/Info                              : Audio Coding 3 Format settings, Endianness              : Big Codec ID                                 : A_AC3 Duration                                 : 2 h 14 min Bit rate mode                            : Constant Bit rate                                 : 640 kb/s Channel(s)                               : 6 channels Channel positions                        : Front: L C R, Side: L R, LFE Sampling rate                            : 48.0 kHz Frame rate                               : 31.250 FPS (1536 SPF) Bit depth                                : 16 bits Compression mode                         : Lossy Stream size                              : 616 MiB (11%) Language                                 : Spanish Service kind                             : Complete Main Default                                  : Yes Forced                                   : No Statistics Tags Issue                    : mkvmerge v15.0.0 ('Duel with the Devil') 64-bit 2018-05-29 05:17:32 / mkvmerge v15.0.0 ('Duel with the Devil') 64-bit 2018-05-29 05:17:32 / UTC 2018-05-29T01:40:45Z FromStats_BitRate                        : 640000 FromStats_Duration                       : 02:14:33.152000000 FromStats_FrameCount                     : 252286 FromStats_StreamSize                     : 645852160 Audio #2 ID                                       : 3 Format                                   : DTS Format/Info                              : Digital Theater Systems Mode                                     : 16 Format settings, Endianness              : Big Codec ID                                 : A_DTS Duration                                 : 2 h 14 min Bit rate mode                            : Constant Bit rate                                 : 1 509 kb/s Channel(s)                               : 6 channels Channel positions                        : Front: L C R, Side: L R, LFE Sampling rate                            : 48.0 kHz Frame rate                               : 93.750 FPS (512 SPF) Bit depth                                : 24 bits Compression mode                         : Lossy Stream size                              : 1.42 GiB (26%) Language                                 : English Default                                  : No Forced                                   : No Statistics Tags Issue                    : mkvmerge v15.0.0 ('Duel with the Devil') 64-bit 2018-05-29 05:17:32 / mkvmerge v15.0.0 ('Duel with the Devil') 64-bit 2018-05-29 05:17:32 / UTC 2018-05-29T01:40:45Z FromStats_BitRate                        : 1508999 FromStats_Duration                       : 02:14:33.142000000 FromStats_FrameCount                     : 756857 FromStats_StreamSize                     : 1522796284 Text #1 ID                                       : 4 Format                                   : PGS Muxing mode                              : zlib Codec ID                                 : S_HDMV/PGS Codec ID/Info                            : Picture based subtitle format used on BDs/HD-DVDs Title                                    : Forzados Language                                 : Spanish Default                                  : Yes Forced                                   : Yes Statistics Tags Issue                    : mkvmerge v15.0.0 ('Duel with the Devil') 64-bit 2018-05-29 05:17:32 / mkvmerge v15.0.0 ('Duel with the Devil') 64-bit 2018-05-29 05:17:32 / UTC 2018-05-29T01:40:45Z FromStats_BitRate                        : 1009 FromStats_Duration                       : 02:10:53.596000000 FromStats_FrameCount                     : 152 FromStats_StreamSize                     : 991100 Text #2 ID                                       : 5 Format                                   : PGS Muxing mode                              : zlib Codec ID                                 : S_HDMV/PGS Codec ID/Info                            : Picture based subtitle format used on BDs/HD-DVDs Language                                 : Spanish Default                                  : No Forced                                   : No Statistics Tags Issue                    : mkvmerge v15.0.0 ('Duel with the Devil') 64-bit 2018-05-29 05:17:32 / mkvmerge v15.0.0 ('Duel with the Devil') 64-bit 2018-05-29 05:17:32 / UTC 2018-05-29T01:40:45Z FromStats_BitRate                        : 26947 FromStats_Duration                       : 02:14:16.466000000 FromStats_FrameCount                     : 2906 FromStats_StreamSize                     : 27138178 Menu 00:00:00.000                             : :Chapter 1 00:06:56.291                             : :Chapter 2 00:12:02.805                             : :Chapter 3 00:19:12.360                             : :Chapter 4 00:28:32.961                             : :Chapter 5 00:33:11.698                             : :Chapter 6 00:40:57.497                             : :Chapter 7 00:48:34.036                             : :Chapter 8 00:53:46.098                             : :Chapter 9 01:01:57.339                             : :Chapter 10 01:08:33.026                             : :Chapter 11 01:16:46.769                             : :Chapter 12 01:22:24.022                             : :Chapter 13 01:31:21.434                             : :Chapter 14 01:41:15.361                             : :Chapter 15 01:50:56.483                             : :Chapter 16 01:59:16.941                             : :Chapter 17 02:02:43.648                             : :Chapter 18
  • Peso: 5.49 GiB

Sinopsis

Descargar Black Panther (2018) IMAX Full HD 1080p Latino. Después de los acontecimientos de «Capitán América: Civil War», T’Challa vuelve a casa, la nación aislada y muy avanzada tecnológicamente de Wakanda, para ser proclamado Rey. Pero la reaparición de un viejo enemigo pone a prueba el temple de T’Challa como Rey y Black Panther ya que se ve arrastrado a un conflicto que pone en peligro todo el destino de Wakanda y del mundo.

RESUBIDO!!!

Ficha técnica

Video trailer de la película

Enlaces de descarga

Rip de Bluray

Descargar Black Panther (2018) IMAX Full HD 1080p Latino




Aportes de DPeliculasHDmega la pass es:dpeliculashdmega.org Aportes de CinemaniaHD la pass es:cinemaniahdd.com Aportes recientes:cinemaniahdd.net

Películas relacionadas

descargar Black Panther (2018) IMAX Full HD 1080p Latino Full 1080p 1080p gratis, Black Panther (2018) IMAX Full HD 1080p Latino Full 1080p mega 1 link, Black Panther (2018) IMAX Full HD 1080p Latino Full 1080p pelicula completa, descargar Black Panther (2018) IMAX Full HD 1080p Latino Full 1080p gratis en mega.

Black Panther (2018) IMAX Full HD 1080p Latino pelicula full hd, Black Panther (2018) IMAX Full HD 1080p Latino mega latino, Black Panther (2018) IMAX Full HD 1080p Latino 4k latino, Black Panther (2018) IMAX Full HD 1080p Latino pelicula completa, Black Panther (2018) IMAX Full HD 1080p Latino descargar gratis, descargar Black Panther (2018) IMAX Full HD 1080p Latino pelicula latino, Black Panther (2018) IMAX Full HD 1080p Latino 1 link mega, Black Panther (2018) IMAX Full HD 1080p Latino 1 link google drive, Black Panther (2018) IMAX Full HD 1080p Latino hd 1080p latino.
Comentarios 7