×

¿Problemas para descargar con Mozilla, EDGE? Deshabilita la opción "Abrir vinculos en una pestaña nueva" tal como lo muestra ésta imagen.

Black Mirror (2023) Temporada 6 NF WEB-DL 1080p Latino

272 vistas

Información de Black Mirror (2023) Temporada 6 NF WEB-DL 1080p Latino

Datos de la película

  • Calidad: WEBDL
  • Audio: Español Latino E-AC3 5.1 Netflix - Ingles E-AC3 5.1 Netflix
  • Subtitulos: Español Latino SRT- FORZADOS SRT
  • Resolución: 1920x1080p
  • Formato: MKV
  • Codec: H.264
  • Encoder: Melkor
  • Mediainfo: Clic para Mostrar Datos Ver
  • Black Mirror S06E01 (2023) NF WEB-DL 1080p Latino.mkv
    Format                      : Matroska
    Format version              : Version 4
    File size                   : 1.40 GiB
    Duration                    : 58 min 26 s
    Overall bit rate mode       : Variable
    Overall bit rate            : 3 419 kb/s
    Movie name                  : Black Mirror S06E01 CinemaniaHDD.Net
    Encoded date                : UTC 2023-06-15 17:43:59
    Writing application         : mkvmerge v59.0.0 ('Shining Star') 64-bit
    Writing library             : libebml v1.4.2 + libmatroska v1.6.4
    Attachments                 : CINEMANIAHD.png
    Site                        : CinemaniaHDD.Net
    Uploader                    : Melkor

    Video
    ID                          : 1
    Format                      : AVC
    Format/Info                 : Advanced Video Codec
    Format profile              : Main@L4
    Format settings             : CABAC / 3 Ref Frames
    Format settings, CABAC      : Yes
    Format settings, Reference  : 3 frames
    Codec ID                    : V_MPEG4/ISO/AVC
    Duration                    : 58 min 26 s
    Bit rate mode               : Variable
    Bit rate                    : 2 009 kb/s
    Nominal bit rate            : 2 260 kb/s
    Maximum bit rate            : 3 390 kb/s
    Width                       : 1 920 pixels
    Height                      : 1 080 pixels
    Display aspect ratio        : 16:9
    Frame rate mode             : Constant
    Frame rate                  : 25.000 FPS
    Color space                 : YUV
    Chroma subsampling          : 4:2:0
    Bit depth                   : 8 bits
    Scan type                   : Progressive
    Bits/(Pixel*Frame)          : 0.039
    Stream size                 : 840 MiB (59%)
    Title                       : WEB HD1080p [CinemaniaHDD]
    Writing library             : x264 core 148 r2727 7d026e8
    Encoding settings           : cabac=1 / ref=3 / deblock=1:0:0 / analyse=0x1:0x111 / me=umh / subme=10 / psy=1 / psy_rd=1.00:0.00 / mixed_ref=1 / me_range=24 / chroma_me=1 / trellis=2 / 8x8dct=0 / cqm=0 / deadzone=21,11 / fast_pskip=1 / chroma_qp_offset=-2 / threads=8 / lookahead_threads=1 / sliced_threads=0 / nr=0 / decimate=1 / interlaced=0 / bluray_compat=0 / stitchable=1 / constrained_intra=0 / bframes=2 / b_pyramid=0 / b_adapt=2 / b_bias=0 / direct=3 / weightb=1 / open_gop=0 / weightp=2 / keyint=250 / keyint_min=25 / scenecut=0 / intra_refresh=0 / rc_lookahead=50 / rc=2pass / mbtree=1 / bitrate=2260 / ratetol=1.0 / qcomp=0.50 / qpmin=6 / qpmax=51 / qpstep=4 / cplxblur=20.0 / qblur=0.5 / vbv_maxrate=3390 / vbv_bufsize=4520 / nal_hrd=vbr / filler=0 / ip_ratio=1.40 / aq=1:1.00
    Default                     : Yes
    Forced                      : No

    Audio #1
    ID                          : 2
    Format                      : E-AC-3
    Format/Info                 : Enhanced AC-3
    Commercial name             : Dolby Digital Plus
    Codec ID                    : A_EAC3
    Duration                    : 58 min 26 s
    Bit rate mode               : Constant
    Bit rate                    : 640 kb/s
    Channel(s)                  : 6 channels
    Channel layout              : L R C LFE Ls Rs
    Sampling rate               : 48.0 kHz
    Frame rate                  : 31.250 FPS (1536 SPF)
    Compression mode            : Lossy
    Stream size                 : 268 MiB (19%)
    Title                       : Español Latino [CinemaniaHDD]
    Language                    : Spanish
    Service kind                : Complete Main
    Default                     : Yes
    Forced                      : No

    Audio #2
    ID                          : 3
    Format                      : E-AC-3 JOC
    Format/Info                 : Enhanced AC-3 with Joint Object Coding
    Commercial name             : Dolby Digital Plus with Dolby Atmos
    Codec ID                    : A_EAC3
    Duration                    : 58 min 26 s
    Bit rate mode               : Constant
    Bit rate                    : 768 kb/s
    Channel(s)                  : 6 channels
    Channel layout              : L R C LFE Ls Rs
    Sampling rate               : 48.0 kHz
    Frame rate                  : 31.250 FPS (1536 SPF)
    Compression mode            : Lossy
    Stream size                 : 321 MiB (22%)
    Title                       : Ingles [CinemaniaHDD]
    Language                    : English
    Service kind                : Complete Main
    Default                     : No
    Forced                      : No
    Complexity index            : 16
    Number of dynamic objects   : 15
    Bed channel count           : 1 channel
    Bed channel configuration   : LFE

    Text #1
    ID                          : 4
    Format                      : UTF-8
    Codec ID                    : S_TEXT/UTF8
    Codec ID/Info               : UTF-8 Plain Text
    Duration                    : 55 min 51 s
    Bit rate                    : 2 b/s
    Count of elements           : 33
    Stream size                 : 846 Bytes (0%)
    Title                       : Forzados-SRT [CinemaniaHDD]
    Language                    : Spanish
    Default                     : Yes
    Forced                      : Yes

    Text #2
    ID                          : 5
    Format                      : UTF-8
    Codec ID                    : S_TEXT/UTF8
    Codec ID/Info               : UTF-8 Plain Text
    Duration                    : 56 min 14 s
    Bit rate                    : 62 b/s
    Count of elements           : 911
    Stream size                 : 25.8 KiB (0%)
    Title                       : Español-SRT [CinemaniaHDD]
    Language                    : Spanish
    Default                     : No
    Forced                      : No

    Text #3
    ID                          : 6
    Format                      : UTF-8
    Codec ID                    : S_TEXT/UTF8
    Codec ID/Info               : UTF-8 Plain Text
    Duration                    : 56 min 31 s
    Bit rate                    : 75 b/s
    Count of elements           : 1030
    Stream size                 : 31.1 KiB (0%)
    Title                       : Ingles-SRT [CinemaniaHDD]
    Language                    : English
    Default                     : No
    Forced                      : No

  • Peso: 1.5 GiB Aprox. C/U. -- 11.3 GiB -- 5 Chapters

Sinopsis

Descargar Black Mirror (2023) Temporada 6 NF WEB-DL 1080p Latino. Esta surrealista serie de antología repleta de historias retorcidas muestra los peores rasgos de la humanidad, sus grandes innovaciones y mucho más.Esta surrealista serie de antología repleta de historias retorcidas muestra los peores rasgos de la humanidad, sus grandes innovaciones y mucho más.

La Sexta temporada Cuentos retorcidos que abarcan épocas y terrores ofrecen una gran cantidad de sorpresas en la temporada más impredecible de esta serie de antología que cambia el juego.

Ficha técnica

Video trailer de la película

Enlaces de descarga

Rip de Bluray

Descargar Black Mirror (2023) Temporada 6 NF WEB-DL 1080p Latino




Aportes de DPeliculasHDmega la pass es:dpeliculashdmega.org Aportes de CinemaniaHD la pass es:cinemaniahdd.com Aportes recientes:cinemaniahdd.net
Etiquetado en :

Películas relacionadas

descargar Black Mirror (2023) Temporada 6 NF WEB-DL 1080p Latino WEBDL 1080p gratis, Black Mirror (2023) Temporada 6 NF WEB-DL 1080p Latino WEBDL mega 1 link, Black Mirror (2023) Temporada 6 NF WEB-DL 1080p Latino WEBDL serie completa, descargar Black Mirror (2023) Temporada 6 NF WEB-DL 1080p Latino WEBDL gratis en mega.

Black Mirror (2023) Temporada 6 NF WEB-DL 1080p Latino pelicula full hd, Black Mirror (2023) Temporada 6 NF WEB-DL 1080p Latino mega latino, Black Mirror (2023) Temporada 6 NF WEB-DL 1080p Latino 4k latino, Black Mirror (2023) Temporada 6 NF WEB-DL 1080p Latino pelicula completa, Black Mirror (2023) Temporada 6 NF WEB-DL 1080p Latino descargar gratis, descargar Black Mirror (2023) Temporada 6 NF WEB-DL 1080p Latino pelicula latino, Black Mirror (2023) Temporada 6 NF WEB-DL 1080p Latino 1 link mega, Black Mirror (2023) Temporada 6 NF WEB-DL 1080p Latino 1 link google drive, Black Mirror (2023) Temporada 6 NF WEB-DL 1080p Latino hd 1080p latino.
Comentarios 0