×

¿Problemas para descargar con Mozilla, EDGE? Deshabilita la opción "Abrir vinculos en una pestaña nueva" tal como lo muestra ésta imagen.

Black Lightning (2018-2020) Temporadas [1/3] CW WEB-DL 1080p Latino

5.093 vistas

Información de Black Lightning (2018-2020) Temporadas [1/3] CW WEB-DL 1080p Latino

Datos de la película

  • Calidad: WEBDL
  • Audio: Español Latino AC3 5.1 WEB-DL - Ingles AC3 5.1 WEB-DL
  • Subtitulos: Español Latino SRT- FORZADOS SRT
  • Resolución: 1920x1080p
  • Formato: MKV
  • Codec: H.264
  • Encoder: cinemaniahdd
  • Mediainfo: Clic para Mostrar Datos Ver
  • Black Lightning T03E16 CW WEB-DL 1080p Latino [CNMNHDD].mkv
    Format                      : Matroska
    Format version              : Version 4
    File size                   : 1.94 GiB
    Duration                    : 42 min 23 s
    Overall bit rate mode       : Variable
    Overall bit rate            : 6 555 kb/s
    Movie name                  : Black Lightning T03E16 - CinemaniaHDD.Net
    Encoded date                : UTC 2021-04-10 00:35:06
    Writing application         : mkvmerge v49.0.0 ('Sick Of Losing Soulmates') 64-bit
    Writing library             : libebml v1.4.0 + libmatroska v1.6.1

    Video
    ID                          : 1
    Format                      : AVC
    Format/Info                 : Advanced Video Codec
    Format profile              : Main@L4
    Format settings             : CABAC / 3 Ref Frames
    Format settings, CABAC      : Yes
    Format settings, Reference  : 3 frames
    Codec ID                    : V_MPEG4/ISO/AVC
    Duration                    : 42 min 23 s
    Bit rate mode               : Variable
    Bit rate                    : 5 800 kb/s
    Maximum bit rate            : 8 700 kb/s
    Width                       : 1 920 pixels
    Height                      : 1 080 pixels
    Display aspect ratio        : 16:9
    Frame rate mode             : Constant
    Frame rate                  : 23.976 (24000/1001) FPS
    Color space                 : YUV
    Chroma subsampling          : 4:2:0
    Bit depth                   : 8 bits
    Scan type                   : Progressive
    Bits/(Pixel*Frame)          : 0.117
    Stream size                 : 1.71 GiB (88%)
    Title                       : CinemaniaHDD
    Writing library             : x264 core 148 r2722 1b0121b
    Encoding settings           : cabac=1 / ref=3 / deblock=1:0:0 / analyse=0x1:0x111 / me=umh / subme=10 / psy=1 / psy_rd=1.00:0.00 / mixed_ref=1 / me_range=24 / chroma_me=1 / trellis=2 / 8x8dct=0 / cqm=0 / deadzone=21,11 / fast_pskip=1 / chroma_qp_offset=-2 / threads=8 / lookahead_threads=1 / sliced_threads=0 / nr=0 / decimate=1 / interlaced=0 / bluray_compat=0 / stitchable=1 / constrained_intra=0 / bframes=2 / b_pyramid=0 / b_adapt=2 / b_bias=0 / direct=3 / weightb=1 / open_gop=0 / weightp=2 / keyint=250 / keyint_min=23 / scenecut=0 / intra_refresh=0 / rc_lookahead=48 / rc=2pass / mbtree=1 / bitrate=5800 / ratetol=1.0 / qcomp=0.50 / qpmin=6 / qpmax=51 / qpstep=4 / cplxblur=20.0 / qblur=0.5 / vbv_maxrate=8700 / vbv_bufsize=11600 / nal_hrd=vbr / filler=0 / ip_ratio=1.40 / aq=1:1.00
    Default                     : Yes
    Forced                      : No

    Audio #1
    ID                          : 2
    Format                      : AC-3
    Format/Info                 : Audio Coding 3
    Commercial name             : Dolby Digital
    Codec ID                    : A_AC3
    Duration                    : 42 min 23 s
    Bit rate mode               : Constant
    Bit rate                    : 384 kb/s
    Channel(s)                  : 6 channels
    Channel layout              : L R C LFE Ls Rs
    Sampling rate               : 48.0 kHz
    Frame rate                  : 31.250 FPS (1536 SPF)
    Compression mode            : Lossy
    Stream size                 : 116 MiB (6%)
    Title                       : Español latino [CinemaniaHDD]
    Language                    : Spanish
    Service kind                : Complete Main
    Default                     : Yes
    Forced                      : No

    Audio #2
    ID                          : 3
    Format                      : AC-3
    Format/Info                 : Audio Coding 3
    Commercial name             : Dolby Digital
    Codec ID                    : A_AC3
    Duration                    : 42 min 23 s
    Bit rate mode               : Constant
    Bit rate                    : 384 kb/s
    Channel(s)                  : 6 channels
    Channel layout              : L R C LFE Ls Rs
    Sampling rate               : 48.0 kHz
    Frame rate                  : 31.250 FPS (1536 SPF)
    Compression mode            : Lossy
    Stream size                 : 116 MiB (6%)
    Title                       : Inglés [CinemaniaHDD]
    Language                    : English
    Service kind                : Complete Main
    Default                     : No
    Forced                      : No

    Text #1
    ID                          : 4
    Format                      : UTF-8
    Codec ID                    : S_TEXT/UTF8
    Codec ID/Info               : UTF-8 Plain Text
    Duration                    : 41 min 10 s
    Bit rate                    : 0 b/s
    Count of elements           : 7
    Stream size                 : 162 Bytes (0%)
    Title                       : Forzados [CinemaniaHDD]
    Language                    : Spanish
    Default                     : Yes
    Forced                      : Yes

    Text #2
    ID                          : 5
    Format                      : UTF-8
    Codec ID                    : S_TEXT/UTF8
    Codec ID/Info               : UTF-8 Plain Text
    Duration                    : 42 min 9 s
    Bit rate                    : 52 b/s
    Count of elements           : 450
    Stream size                 : 16.2 KiB (0%)
    Title                       : Español latino [CinemaniaHDD]
    Language                    : Spanish
    Default                     : No
    Forced                      : No

     

  • Peso: 1.94 GiB Aprox ---- 64.1 GiB in 45 Chapters.

Sinopsis

Mientras las pandillas amenazan Freeland, Jefferson Pierce regresa a las calles como el héroe enmascarado Black Lightning, pero, ahora, él no es el único con poderes.

Ficha técnica

Video trailer de la película

Enlaces de descarga

Rip de Bluray

Descargar Black Lightning (2018-2020) Temporadas [1/3] CW WEB-DL 1080p Latino




Aportes de DPeliculasHDmega la pass es:dpeliculashdmega.org Aportes de CinemaniaHD la pass es:cinemaniahdd.com

Películas relacionadas

descargar Black Lightning (2018-2020) Temporadas [1/3] CW WEB-DL 1080p Latino WEBDL 1080p gratis, Black Lightning (2018-2020) Temporadas [1/3] CW WEB-DL 1080p Latino WEBDL mega 1 link, Black Lightning (2018-2020) Temporadas [1/3] CW WEB-DL 1080p Latino WEBDL serie completa, descargar Black Lightning (2018-2020) Temporadas [1/3] CW WEB-DL 1080p Latino WEBDL gratis en mega.

Black Lightning (2018-2020) Temporadas [1/3] CW WEB-DL 1080p Latino pelicula full hd, Black Lightning (2018-2020) Temporadas [1/3] CW WEB-DL 1080p Latino mega latino, Black Lightning (2018-2020) Temporadas [1/3] CW WEB-DL 1080p Latino 4k latino, Black Lightning (2018-2020) Temporadas [1/3] CW WEB-DL 1080p Latino pelicula completa, Black Lightning (2018-2020) Temporadas [1/3] CW WEB-DL 1080p Latino descargar gratis, descargar Black Lightning (2018-2020) Temporadas [1/3] CW WEB-DL 1080p Latino pelicula latino, Black Lightning (2018-2020) Temporadas [1/3] CW WEB-DL 1080p Latino 1 link mega, Black Lightning (2018-2020) Temporadas [1/3] CW WEB-DL 1080p Latino 1 link google drive, Black Lightning (2018-2020) Temporadas [1/3] CW WEB-DL 1080p Latino hd 1080p latino.
Comentarios 0