×

¿Problemas para descargar con Mozilla, EDGE? Deshabilita la opción "Abrir vinculos en una pestaña nueva" tal como lo muestra ésta imagen.

Black Lightning (2021) Cuarta Temporada CW WEB-DL 1080p Latino

336 vistas

Información de Black Lightning (2021) Cuarta Temporada CW WEB-DL 1080p Latino

Datos de la película

  • Calidad: 1080p
  • Audio: Español Latino AC3 5.1 WEB-DL - Ingles AC3 5.1 WEB-DL
  • Subtitulos: Español Latino SRT- FORZADOS SRT
  • Resolución: 1920x1080
  • Formato: MKV
  • Codec: H.264
  • Encoder: cinemaniahdd
  • Mediainfo: Clic para Mostrar Datos Ver
  • Black Lightning T04E13 CW WEB-DL 1080p Latino [CNMNHDD].mkv
    Format                      : Matroska
    Format version              : Version 4
    File size                   : 1.94 GiB
    Duration                    : 42 min 20 s
    Overall bit rate mode       : Variable
    Overall bit rate            : 6 543 kb/s
    Movie name                  : Black Lightning T04E13 - CinemaniaHDD.Net
    Encoded date                : UTC 2021-06-18 01:49:08
    Writing application         : mkvmerge v56.1.0 ('My Friend') 64-bit
    Writing library             : libebml v1.4.2 + libmatroska v1.6.4

    Video
    ID                          : 1
    Format                      : AVC
    Format/Info                 : Advanced Video Codec
    Format profile              : Main@L4
    Format settings             : CABAC / 3 Ref Frames
    Format settings, CABAC      : Yes
    Format settings, Reference  : 3 frames
    Codec ID                    : V_MPEG4/ISO/AVC
    Duration                    : 42 min 20 s
    Bit rate mode               : Variable
    Bit rate                    : 5 800 kb/s
    Maximum bit rate            : 8 700 kb/s
    Width                       : 1 920 pixels
    Height                      : 1 080 pixels
    Display aspect ratio        : 16:9
    Frame rate mode             : Constant
    Frame rate                  : 23.976 (24000/1001) FPS
    Color space                 : YUV
    Chroma subsampling          : 4:2:0
    Bit depth                   : 8 bits
    Scan type                   : Progressive
    Bits/(Pixel*Frame)          : 0.117
    Stream size                 : 1.71 GiB (88%)
    Title                       : CinemaniaHDD
    Writing library             : x264 core 148 r2722 1b0121b
    Default                     : Yes
    Forced                      : No

    Audio #1
    ID                          : 2
    Format                      : AC-3
    Format/Info                 : Audio Coding 3
    Commercial name             : Dolby Digital
    Codec ID                    : A_AC3
    Duration                    : 42 min 20 s
    Bit rate mode               : Constant
    Bit rate                    : 384 kb/s
    Channel(s)                  : 6 channels
    Channel layout              : L R C LFE Ls Rs
    Sampling rate               : 48.0 kHz
    Frame rate                  : 31.250 FPS (1536 SPF)
    Compression mode            : Lossy
    Stream size                 : 116 MiB (6%)
    Title                       : Español latino [CinemaniaHDD]
    Language                    : Spanish
    Service kind                : Complete Main
    Default                     : Yes
    Forced                      : No

    Audio #2
    ID                          : 3
    Format                      : AC-3
    Format/Info                 : Audio Coding 3
    Commercial name             : Dolby Digital
    Codec ID                    : A_AC3
    Duration                    : 42 min 20 s
    Bit rate mode               : Constant
    Bit rate                    : 384 kb/s
    Channel(s)                  : 6 channels
    Channel layout              : L R C LFE Ls Rs
    Sampling rate               : 48.0 kHz
    Frame rate                  : 31.250 FPS (1536 SPF)
    Compression mode            : Lossy
    Stream size                 : 116 MiB (6%)
    Title                       : Inglés [CinemaniaHDD]
    Language                    : English
    Service kind                : Complete Main
    Default                     : No
    Forced                      : No

    Text #1
    ID                          : 4
    Format                      : UTF-8
    Codec ID                    : S_TEXT/UTF8
    Codec ID/Info               : UTF-8 Plain Text
    Duration                    : 42 min 6 s
    Bit rate                    : 40 b/s
    Count of elements           : 475
    Stream size                 : 12.6 KiB (0%)
    Title                       : Español latino [CinemaniaHDD]
    Language                    : Spanish
    Default                     : No
    Forced                      : No

    Text #2
    ID                          : 5
    Format                      : UTF-8
    Codec ID                    : S_TEXT/UTF8
    Codec ID/Info               : UTF-8 Plain Text
    Duration                    : 41 min 49 s
    Bit rate                    : 59 b/s
    Count of elements           : 981
    Stream size                 : 18.1 KiB (0%)
    Title                       : Inglés [CinemaniaHDD]
    Language                    : English
    Default                     : No
    Forced                      : No

    Text #3
    ID                          : 6
    Format                      : UTF-8
    Codec ID                    : S_TEXT/UTF8
    Codec ID/Info               : UTF-8 Plain Text
    Duration                    : 41 min 6 s
    Bit rate                    : 0 b/s
    Count of elements           : 4
    Stream size                 : 93.0 Bytes (0%)
    Title                       : Forzados [CinemaniaHDD]
    Language                    : Spanish
    Default                     : Yes
    Forced                      : Yes

     

  • Peso: 1.94 GiB c/u Aprox ---- 17 GiB in 13 Chapters.

Sinopsis

Jefferson Pierce es un hombre que lucha con un secreto. Hace nueve años, Jefferson pasaba la mayoría de su tiempo vigilando que las calles de Nueva Orleans fueran seguras, gracias a su super poder de controlar la electricidad. Sin embargo, tras pasar tanto tiempo en la calle vigilando que todo fuera seguro, dejó su sus aventuras de superhéroe para dedicarle más tiempo a su familia. Pese a que él pensaba que los días como superhéroe habían llegado a su fin, ahora tendrá que volver a usar sus poderes para luchar contra una banda local, Los 100, para proteger a su familia y a su ciudad.

Ficha técnica

Video trailer de la película

Enlaces de descarga

Rip de Bluray

Descargar Black Lightning (2021) Cuarta Temporada CW WEB-DL 1080p Latino




Aportes de DPeliculasHDmega la pass es:dpeliculashdmega.org Aportes de CinemaniaHD la pass es:cinemaniahdd.com

Películas relacionadas

  • Stromboli (2022) NF WEB-DL 1080p Latino

    Stromboli (2022) NF WEB-DL 1080p Latino

    2022
    Stromboli (2022) NF WEB-DL 1080p Latino

    1h 26m 2022

    Descargar Stromboli (2022) NF WEB-DL 1080p Latino. Sara, una mujer que se ha divorciado recientemente,...

    Director: Michiel van Erp

    Género: Drama

    Actores: Tim McInnerny

  • Infiesto (2023) NF WEB-DL 1080p Castellano

    Infiesto (2023) NF WEB-DL 1080p Castellano

    2023
    Infiesto (2023) NF WEB-DL 1080p Castellano

    1h 36m 2023

    Descargar Infiesto (2023) NF WEB-DL 1080p Castellano. Mientras el coronavirus trastoca sus vidas, dos...

    Director: Patxi Amezcua

    Género: Crimen

    Actores: Luis Zahera

  • Espiritu Libre (2023) NF WEB-DL 1080p Latino

    Espiritu Libre (2023) NF WEB-DL 1080p Latino

    2023
    Espiritu Libre (2023) NF WEB-DL 1080p Latino

    1h 49m 2023

    Descargar Espiritu Libre (2023) NF WEB-DL 1080p Latino. La película se basa en la increíble historia...

    Director: Sarah Spillane

    Género: Aventura

    Actores: Vivien Turner

descargar Black Lightning (2021) Cuarta Temporada CW WEB-DL 1080p Latino 1080p 1080p gratis, Black Lightning (2021) Cuarta Temporada CW WEB-DL 1080p Latino 1080p mega 1 link, Black Lightning (2021) Cuarta Temporada CW WEB-DL 1080p Latino 1080p serie completa, descargar Black Lightning (2021) Cuarta Temporada CW WEB-DL 1080p Latino 1080p gratis en mega.

Black Lightning (2021) Cuarta Temporada CW WEB-DL 1080p Latino pelicula full hd, Black Lightning (2021) Cuarta Temporada CW WEB-DL 1080p Latino mega latino, Black Lightning (2021) Cuarta Temporada CW WEB-DL 1080p Latino 4k latino, Black Lightning (2021) Cuarta Temporada CW WEB-DL 1080p Latino pelicula completa, Black Lightning (2021) Cuarta Temporada CW WEB-DL 1080p Latino descargar gratis, descargar Black Lightning (2021) Cuarta Temporada CW WEB-DL 1080p Latino pelicula latino, Black Lightning (2021) Cuarta Temporada CW WEB-DL 1080p Latino 1 link mega, Black Lightning (2021) Cuarta Temporada CW WEB-DL 1080p Latino 1 link google drive, Black Lightning (2021) Cuarta Temporada CW WEB-DL 1080p Latino hd 1080p latino.
Comentarios 0