×

¿Problemas para descargar con Mozilla, EDGE? Deshabilita la opción "Abrir vinculos en una pestaña nueva" tal como lo muestra ésta imagen.

Black Knight (2023) Temporada 1 NF WEB-DL 1080p Latino

206 vistas

Información de Black Knight (2023) Temporada 1 NF WEB-DL 1080p Latino

Datos de la película

  • Calidad: WEBDL
  • Audio: Se especifica abajo de la Sinopsis
  • Subtitulos: Español Latino SRT- FORZADOS SRT
  • Resolución: 1920x1080p
  • Formato: MKV
  • Codec: H.264
  • Encoder: Melkor
  • Mediainfo: Clic para Mostrar Datos Ver
  • Black Knight S01E01 (2023) NF WEB-DL 1080p Latino.mkv
    Format                      : Matroska
    Format version              : Version 4
    File size                   : 1.88 GiB
    Duration                    : 48 min 13 s
    Overall bit rate mode       : Variable
    Overall bit rate            : 5 580 kb/s
    Movie name                  : Black Knight S01E01 CinemaniaHDD.Net
    Encoded date                : UTC 2023-05-28 16:19:58
    Writing application         : mkvmerge v56.1.0 ('My Friend') 64-bit
    Writing library             : libebml v1.4.2 + libmatroska v1.6.4
    Attachments                 : CINEMANIAHD.png
    Site                        : CinemaniaHDD.Net
    Uploader                    : Melkor

    Video
    ID                          : 1
    Format                      : AVC
    Format/Info                 : Advanced Video Codec
    Format profile              : High@L4
    Format settings             : CABAC / 4 Ref Frames
    Format settings, CABAC      : Yes
    Format settings, Reference  : 4 frames
    Codec ID                    : V_MPEG4/ISO/AVC
    Duration                    : 48 min 12 s
    Bit rate mode               : Variable
    Bit rate                    : 4 299 kb/s
    Maximum bit rate            : 20.0 Mb/s
    Width                       : 1 920 pixels
    Height                      : 1 080 pixels
    Display aspect ratio        : 16:9
    Frame rate mode             : Constant
    Frame rate                  : 23.976 (24000/1001) FPS
    Color space                 : YUV
    Chroma subsampling          : 4:2:0
    Bit depth                   : 8 bits
    Scan type                   : Progressive
    Bits/(Pixel*Frame)          : 0.086
    Stream size                 : 1.45 GiB (77%)
    Title                       : WEB HD1080p [CinemaniaHDD]
    Writing library             : x264 core 148 r2727 7d026e8
    Encoding settings           : cabac=1 / ref=4 / deblock=1:0:0 / analyse=0x3:0x111 / me=umh / subme=10 / psy=1 / psy_rd=1.00:0.00 / mixed_ref=1 / me_range=120 / chroma_me=1 / trellis=2 / 8x8dct=1 / cqm=0 / deadzone=21,11 / fast_pskip=1 / chroma_qp_offset=-2 / threads=6 / lookahead_threads=1 / sliced_threads=0 / nr=0 / decimate=1 / interlaced=0 / bluray_compat=0 / stitchable=1 / constrained_intra=0 / bframes=16 / b_pyramid=2 / b_adapt=2 / b_bias=0 / direct=3 / weightb=1 / open_gop=0 / weightp=2 / keyint=240 / keyint_min=121 / scenecut=0 / intra_refresh=0 / rc_lookahead=240 / rc=crf / mbtree=1 / crf=16.0 / qcomp=0.50 / qpmin=6 / qpmax=51 / qpstep=4 / vbv_maxrate=20000 / vbv_bufsize=25000 / crf_max=0.0 / nal_hrd=vbr / filler=0 / ip_ratio=1.40 / aq=1:0.80
    Default                     : Yes
    Forced                      : Yes

    Audio #1
    ID                          : 2
    Format                      : E-AC-3
    Format/Info                 : Enhanced AC-3
    Commercial name             : Dolby Digital Plus
    Codec ID                    : A_EAC3
    Duration                    : 48 min 13 s
    Bit rate mode               : Constant
    Bit rate                    : 640 kb/s
    Channel(s)                  : 6 channels
    Channel layout              : L R C LFE Ls Rs
    Sampling rate               : 48.0 kHz
    Frame rate                  : 31.250 FPS (1536 SPF)
    Compression mode            : Lossy
    Stream size                 : 221 MiB (11%)
    Title                       : Español Latino [CinemaniaHDD]
    Language                    : Spanish
    Service kind                : Complete Main
    Default                     : Yes
    Forced                      : Yes

    Audio #2
    ID                          : 3
    Format                      : E-AC-3
    Format/Info                 : Enhanced AC-3
    Commercial name             : Dolby Digital Plus
    Codec ID                    : A_EAC3
    Duration                    : 48 min 13 s
    Bit rate mode               : Constant
    Bit rate                    : 640 kb/s
    Channel(s)                  : 6 channels
    Channel layout              : L R C LFE Ls Rs
    Sampling rate               : 48.0 kHz
    Frame rate                  : 31.250 FPS (1536 SPF)
    Compression mode            : Lossy
    Stream size                 : 221 MiB (11%)
    Title                       : Coreano [CinemaniaHDD]
    Language                    : Korean
    Service kind                : Complete Main
    Default                     : No
    Forced                      : No

    Text #1
    ID                          : 4
    Format                      : UTF-8
    Codec ID                    : S_TEXT/UTF8
    Codec ID/Info               : UTF-8 Plain Text
    Duration                    : 45 min 56 s
    Bit rate                    : 3 b/s
    Count of elements           : 43
    Stream size                 : 1.01 KiB (0%)
    Title                       : Forzados-SRT [CinemaniaHDD]
    Language                    : Spanish
    Default                     : Yes
    Forced                      : Yes

    Text #2
    ID                          : 5
    Format                      : UTF-8
    Codec ID                    : S_TEXT/UTF8
    Codec ID/Info               : UTF-8 Plain Text
    Duration                    : 45 min 56 s
    Bit rate                    : 37 b/s
    Count of elements           : 431
    Stream size                 : 12.6 KiB (0%)
    Title                       : Español-SRT [CinemaniaHDD]
    Language                    : Spanish
    Default                     : No
    Forced                      : No

    Text #3
    ID                          : 6
    Format                      : UTF-8
    Codec ID                    : S_TEXT/UTF8
    Codec ID/Info               : UTF-8 Plain Text
    Duration                    : 46 min 5 s
    Bit rate                    : 56 b/s
    Count of elements           : 684
    Stream size                 : 19.2 KiB (0%)
    Title                       : Ingles-SRT [CinemaniaHDD]
    Language                    : English
    Default                     : No
    Forced                      : No

  • Peso: 1.90 GiB Aprox C/U -- 10.3 GiB -- 6 Chapters

Sinopsis

Descargar Black Knight (2023) Temporada 1 NF WEB-DL 1080p Latino. Ambientada en el año 2071, donde el mundo ha sido diezmado por la contaminación tóxica del aire. Solo alrededor del 1 por ciento de la población ha sobrevivido y ahora existe una división de clase social estricta. Cuando salen de sus hogares, las personas deben usar máscaras. Debido al problema del aire, la gente depende del servicio de entrega de paquetes. Ahora son los repartidores, llamados caballeros, los que entregan y protegen los paquetes de los ladrones.
5-8 es un caballero legendario y muy hábil en el combate físico. Él se encuentra con Yoon Sa Wol, un refugiado que quiere convertirse en caballero. Con la ayuda de Seol A, un oficial del Comando de Inteligencia de Defensa, 5-8 entrena y asesora a Sa Wol, ayudándolo a lograr su sueño.

Español Latino EAC3 5.1 NF – Coreano EAC3 5.1 NF

Ficha técnica

Video trailer de la película

Enlaces de descarga

Rip de Bluray

Descargar Black Knight (2023) Temporada 1 NF WEB-DL 1080p Latino




Aportes de DPeliculasHDmega la pass es:dpeliculashdmega.org Aportes de CinemaniaHD la pass es:cinemaniahdd.com Aportes recientes:cinemaniahdd.net

Películas relacionadas

descargar Black Knight (2023) Temporada 1 NF WEB-DL 1080p Latino WEBDL 1080p gratis, Black Knight (2023) Temporada 1 NF WEB-DL 1080p Latino WEBDL mega 1 link, Black Knight (2023) Temporada 1 NF WEB-DL 1080p Latino WEBDL serie completa, descargar Black Knight (2023) Temporada 1 NF WEB-DL 1080p Latino WEBDL gratis en mega.

Black Knight (2023) Temporada 1 NF WEB-DL 1080p Latino pelicula full hd, Black Knight (2023) Temporada 1 NF WEB-DL 1080p Latino mega latino, Black Knight (2023) Temporada 1 NF WEB-DL 1080p Latino 4k latino, Black Knight (2023) Temporada 1 NF WEB-DL 1080p Latino pelicula completa, Black Knight (2023) Temporada 1 NF WEB-DL 1080p Latino descargar gratis, descargar Black Knight (2023) Temporada 1 NF WEB-DL 1080p Latino pelicula latino, Black Knight (2023) Temporada 1 NF WEB-DL 1080p Latino 1 link mega, Black Knight (2023) Temporada 1 NF WEB-DL 1080p Latino 1 link google drive, Black Knight (2023) Temporada 1 NF WEB-DL 1080p Latino hd 1080p latino.
Comentarios 0