×

¿Problemas para descargar con Mozilla, EDGE? Deshabilita la opción "Abrir vinculos en una pestaña nueva" tal como lo muestra ésta imagen.

Black Hawk Down (2001) [EXTENDED] REMUX 4K HDR Latino – CMHDD

272 vistas

Información de Black Hawk Down (2001) [EXTENDED] REMUX 4K HDR Latino – CMHDD

Datos de la película

  • Calidad: 4K HDR
  • Audio: Español Latino AC3 5.1 BLURAY - Ingles DTS 5.1 BLURAY
  • Subtitulos: Español Latino PGS
  • Resolución: 3840x2160p
  • Formato: MKV
  • Codec: H.264
  • Encoder: Dracarys
  • Mediainfo: Clic para Mostrar Datos Ver
  • Format                      : Matroska
    Format version              : Version 4
    File size                   : 63.0 GiB
    Duration                    : 2 h 31 min
    Overall bit rate mode       : Variable
    Overall bit rate            : 59.4 Mb/s
    Movie name                  : Black Hawk Down (2001) [EXTENDED] REMUX 4K HDR Latino - CMHDD
    Encoded date                : UTC 2023-03-04 23:09:02
    Writing application         : mkvmerge v47.0.0 ('Black Flag') 64-bit
    Writing library             : libebml v1.3.10 + libmatroska v1.5.2
    Cover                       : Yes
    Attachments                 : cover.jpg

    Video
    ID                          : 1
    Format                      : HEVC
    Format/Info                 : High Efficiency Video Coding
    Format profile              : Main 10@L5.1@High
    HDR format                  : SMPTE ST 2086, HDR10 compatible
    Codec ID                    : V_MPEGH/ISO/HEVC
    Duration                    : 2 h 31 min
    Bit rate                    : 51.7 Mb/s
    Width                       : 3 840 pixels
    Height                      : 2 160 pixels
    Display aspect ratio        : 16:9
    Frame rate mode             : Constant
    Frame rate                  : 23.976 (23976/1000) FPS
    Original frame rate         : 23.976 (24000/1001) FPS
    Color space                 : YUV
    Chroma subsampling          : 4:2:0 (Type 2)
    Bit depth                   : 10 bits
    Bits/(Pixel*Frame)          : 0.260
    Stream size                 : 54.8 GiB (87%)
    Default                     : Yes
    Forced                      : No
    Color range                 : Limited
    Color primaries             : BT.2020
    Transfer characteristics    : PQ
    Matrix coefficients         : BT.2020 non-constant
    Mastering display color pri : Display P3
    Mastering display luminance : min: 0.0050 cd/m2, max: 4000 cd/m2
    Maximum Content Light Level : 4000 cd/m2
    Maximum Frame-Average Light : 1391 cd/m2

    Audio #1
    ID                          : 2
    Format                      : MLP FBA 16-ch
    Format/Info                 : Meridian Lossless Packing FBA with 16-channel presentation
    Commercial name             : Dolby TrueHD with Dolby Atmos
    Codec ID                    : A_TRUEHD
    Duration                    : 2 h 31 min
    Bit rate mode               : Variable
    Bit rate                    : 3 946 kb/s
    Maximum bit rate            : 6 000 kb/s
    Channel(s)                  : 8 channels
    Channel layout              : L R C LFE Ls Rs Lb Rb
    Sampling rate               : 48.0 kHz
    Frame rate                  : 1 200.000 FPS (40 SPF)
    Compression mode            : Lossless
    Stream size                 : 4.19 GiB (7%)
    Language                    : English
    Default                     : No
    Forced                      : No
    Number of dynamic objects   : 11
    Bed channel count           : 1 channel
    Bed channel configuration   : LFE

    Audio #2
    ID                          : 3
    Format                      : AC-3
    Format/Info                 : Audio Coding 3
    Commercial name             : Dolby Digital
    Codec ID                    : A_AC3
    Duration                    : 2 h 31 min
    Bit rate mode               : Constant
    Bit rate                    : 640 kb/s
    Channel(s)                  : 6 channels
    Channel layout              : L R C LFE Ls Rs
    Sampling rate               : 48.0 kHz
    Frame rate                  : 31.250 FPS (1536 SPF)
    Compression mode            : Lossy
    Stream size                 : 695 MiB (1%)
    Language                    : English
    Service kind                : Complete Main
    Default                     : No
    Forced                      : No

    Audio #3
    ID                          : 4
    Format                      : DTS XLL
    Format/Info                 : Digital Theater Systems
    Commercial name             : DTS-HD Master Audio
    Codec ID                    : A_DTS
    Duration                    : 2 h 31 min
    Bit rate mode               : Variable
    Bit rate                    : 2 357 kb/s
    Channel(s)                  : 6 channels
    Channel layout              : C L R Ls Rs LFE
    Sampling rate               : 48.0 kHz
    Frame rate                  : 93.750 FPS (512 SPF)
    Bit depth                   : 16 bits
    Compression mode            : Lossless
    Stream size                 : 2.50 GiB (4%)
    Language                    : English
    Default                     : No
    Forced                      : No

    Audio #4
    ID                          : 5
    Format                      : AC-3
    Format/Info                 : Audio Coding 3
    Commercial name             : Dolby Digital
    Codec ID                    : A_AC3
    Duration                    : 2 h 31 min
    Bit rate mode               : Constant
    Bit rate                    : 448 kb/s
    Channel(s)                  : 6 channels
    Channel layout              : L R C LFE Ls Rs
    Sampling rate               : 48.0 kHz
    Frame rate                  : 31.250 FPS (1536 SPF)
    Compression mode            : Lossy
    Delay relative to video     : 15 ms
    Stream size                 : 487 MiB (1%)
    Language                    : Spanish
    Service kind                : Complete Main
    Default                     : Yes
    Forced                      : No

    Audio #5
    ID                          : 6
    Format                      : AC-3
    Format/Info                 : Audio Coding 3
    Commercial name             : Dolby Digital
    Format settings             : Dolby Surround
    Codec ID                    : A_AC3
    Duration                    : 2 h 31 min
    Bit rate mode               : Constant
    Bit rate                    : 192 kb/s
    Channel(s)                  : 2 channels
    Channel layout              : L R
    Sampling rate               : 48.0 kHz
    Frame rate                  : 31.250 FPS (1536 SPF)
    Compression mode            : Lossy
    Delay relative to video     : 15 ms
    Stream size                 : 209 MiB (0%)
    Language                    : Spanish
    Service kind                : Complete Main
    Default                     : No
    Forced                      : No

    Text
    ID                          : 7
    Format                      : PGS
    Muxing mode                 : zlib
    Codec ID                    : S_HDMV/PGS
    Codec ID/Info               : Picture based subtitle format used on BDs/HD-DVDs
    Duration                    : 2 h 26 min
    Bit rate                    : 29.8 kb/s
    Frame rate                  : 0.356 FPS
    Count of elements           : 3117
    Stream size                 : 31.1 MiB (0%)
    Language                    : Spanish
    Default                     : No
    Forced                      : No

    Menu
    00:00:00.000                : en:Capítulo 01
    00:21:48.682                : en:Capítulo 02
    00:31:40.314                : en:Capítulo 03
    00:39:19.940                : en:Capítulo 04
    00:43:25.519                : en:Capítulo 05
    00:54:04.073                : en:Capítulo 06
    01:02:18.359                : en:Capítulo 07
    01:10:22.050                : en:Capítulo 08
    01:28:36.811                : en:Capítulo 09
    01:30:26.295                : en:Capítulo 10
    01:43:36.042                : en:Capítulo 11
    01:48:49.772                : en:Capítulo 12
    02:02:18.914                : en:Capítulo 13
    02:06:20.864                : en:Capítulo 14
    02:11:28.630                : en:Capítulo 15
    02:20:13.362                : en:Capítulo 16

  • Peso: 63.0 GiB

Sinopsis

Octubre de 1993. Soldados americanos de élite son enviados a Mogadiscio (Somalia) en una misión de paz de las Naciones Unidas. El fin se supone que es salvar vidas, no segarlas. Pero resulta que el principal objetivo de la misión es capturar al caudillo Aidid y acabar de raíz con la guerra. Al principio, todo parece ir bien, hasta que dos helicópteros Black Hawk, aparentemente invencibles, son derribados. Entonces la misión se convierte en una desesperada carrera para rescatar a la tripulación y a los soldados de tierra que han quedado atrapados o han resultado heridos en el accidente.

Ficha técnica

Video trailer de la película

Enlaces de descarga

Rip de Bluray

Descargar Black Hawk Down (2001) [EXTENDED] REMUX 4K HDR Latino – CMHDD


Aportes de DPeliculasHDmega la pass es:dpeliculashdmega.org Aportes de CinemaniaHD la pass es:cinemaniahdd.com Aportes recientes:cinemaniahdd.net
Guardado en : Acción , Bélica , Historia

Películas relacionadas

  • Combate clandestino (2024) AMZN WEB-DL 1080p Latino

    Combate clandestino (2024) AMZN WEB-DL 1080p Latino

    2024
    Combate clandestino (2024) AMZN WEB-DL 1080p Latino

    1h 30m 2024

    Descargar Combate clandestino (2024) AMZN WEB-DL 1080p Latino. Un ex soldado a la deriva se convierte...

    Director: Christian Sesma

    Género: Acción

    Actores: Tyler Wombles

  • ¡Patos! (2023) HD 1080p Latino

    ¡Patos! (2023) HD 1080p Latino

    2023
    ¡Patos! (2023) HD 1080p Latino

    1h 23m 2023

    Descargar ¡Patos! (2023) HD 1080p Latino. Después de que una familia de patos migratorios aterriza...

    Director: Guy-Laurent Homsy

    Género: Acción

    Actores: Zeno Robinson

  • ¡Patos! (2023) PLACEBO Full HD 1080p Latino

    ¡Patos! (2023) PLACEBO Full HD 1080p Latino

    2023
    ¡Patos! (2023) PLACEBO Full HD 1080p Latino

    1h 23m 2023

    Descargar ¡Patos! (2023) PLACEBO Full HD 1080p Latino. Después de que una familia de patos migratorios...

    Director: Guy-Laurent Homsy

    Género: Acción

    Actores: Zeno Robinson

  • ¡Patos! (2023) REMUX 1080p Latino

    ¡Patos! (2023) REMUX 1080p Latino

    2023
    ¡Patos! (2023) REMUX 1080p Latino

    1h 23m 2023

    Descargar ¡Patos! (2023) REMUX 1080p Latino. Después de que una familia de patos migratorios aterriza...

    Director: Guy-Laurent Homsy

    Género: Acción

    Actores: Zeno Robinson

descargar Black Hawk Down (2001) [EXTENDED] REMUX 4K HDR Latino – CMHDD 4K HDR 1080p gratis, Black Hawk Down (2001) [EXTENDED] REMUX 4K HDR Latino – CMHDD 4K HDR mega 1 link, Black Hawk Down (2001) [EXTENDED] REMUX 4K HDR Latino – CMHDD 4K HDR pelicula completa, descargar Black Hawk Down (2001) [EXTENDED] REMUX 4K HDR Latino – CMHDD 4K HDR gratis en mega.

Black Hawk Down (2001) [EXTENDED] REMUX 4K HDR Latino – CMHDD pelicula full hd, Black Hawk Down (2001) [EXTENDED] REMUX 4K HDR Latino – CMHDD mega latino, Black Hawk Down (2001) [EXTENDED] REMUX 4K HDR Latino – CMHDD 4k latino, Black Hawk Down (2001) [EXTENDED] REMUX 4K HDR Latino – CMHDD pelicula completa, Black Hawk Down (2001) [EXTENDED] REMUX 4K HDR Latino – CMHDD descargar gratis, descargar Black Hawk Down (2001) [EXTENDED] REMUX 4K HDR Latino – CMHDD pelicula latino, Black Hawk Down (2001) [EXTENDED] REMUX 4K HDR Latino – CMHDD 1 link mega, Black Hawk Down (2001) [EXTENDED] REMUX 4K HDR Latino – CMHDD 1 link google drive, Black Hawk Down (2001) [EXTENDED] REMUX 4K HDR Latino – CMHDD hd 1080p latino.
Comentarios 0