×

¿Problemas para descargar con Mozilla, EDGE? Deshabilita la opción "Abrir vinculos en una pestaña nueva" tal como lo muestra ésta imagen.

Fuera de la Ley (2019) Full HD 1080p Latino

1.323 vistas

Información de Fuera de la Ley (2019) Full HD 1080p Latino

Datos de la película

  • Calidad: Full 1080p
  • Audio: Español Latino AC3 5.1 BLURAY - Ingles DTS 5.1 BLURAY
  • Subtitulos: Español Latino PGS - Ingles PGS
  • Resolución: 1920x1080p
  • Formato: MKV
  • Codec: H.264
  • Encoder: CinefiloCool
  • Mediainfo: Clic para Mostrar Datos Ver
  • Black and Blue (2019) Full HD 1080p Latino-CMHDD.mkv
    Format                      : Matroska
    Format version              : Version 4
    File size                   : 5.74 GiB
    Duration                    : 1 h 47 min
    Overall bit rate            : 7 617 kb/s
    Movie name                  : CinemaniaHDD.Net
    Encoded date                : UTC 2020-01-14 03:55:59
    Writing application         : mkvmerge v38.0.0 ('The Silent Type') 64-bit
    Writing library             : libebml v1.3.9 + libmatroska v1.5.2
    Attachments                 : CINEMANIAHD.png

    Video
    ID                          : 1
    Format                      : AVC
    Format/Info                 : Advanced Video Codec
    Format profile              : High@L4.1
    Format settings             : CABAC / 4 Ref Frames
    Format settings, CABAC      : Yes
    Format settings, ReFrames   : 4 frames
    Codec ID                    : V_MPEG4/ISO/AVC
    Duration                    : 1 h 47 min
    Bit rate                    : 5 432 kb/s
    Width                       : 1 920 pixels
    Height                      : 1 080 pixels
    Display aspect ratio        : 16:9
    Frame rate mode             : Constant
    Frame rate                  : 23.976 (24000/1001) FPS
    Color space                 : YUV
    Chroma subsampling          : 4:2:0
    Bit depth                   : 8 bits
    Scan type                   : Progressive
    Bits/(Pixel*Frame)          : 0.109
    Stream size                 : 4.10 GiB (71%)
    Title                       : Full HD1080p [Bluray]
    Writing library             : x264 core 157 r2935 545de2f
    Encoding settings           : cabac=1 / ref=4 / deblock=1:0:0 / analyse=0x3:0x133 / me=tesa / subme=11 / psy=1 / psy_rd=1.00:0.00 / mixed_ref=1 / me_range=24 / chroma_me=1 / trellis=2 / 8x8dct=1 / cqm=0 / deadzone=21,11 / fast_pskip=0 / chroma_qp_offset=-2 / threads=34 / lookahead_threads=8 / sliced_threads=0 / nr=0 / decimate=1 / interlaced=0 / bluray_compat=0 / constrained_intra=0 / bframes=16 / b_pyramid=2 / b_adapt=2 / b_bias=0 / direct=3 / weightb=1 / open_gop=0 / weightp=2 / keyint=240 / keyint_min=24 / scenecut=40 / intra_refresh=0 / rc_lookahead=60 / rc=crf / mbtree=1 / crf=20.0 / qcomp=0.60 / qpmin=0 / qpmax=69 / qpstep=4 / vbv_maxrate=62500 / vbv_bufsize=78125 / crf_max=0.0 / nal_hrd=none / filler=0 / ip_ratio=1.40 / aq=1:1.00
    Default                     : Yes
    Forced                      : Yes
    Color range                 : Limited
    Color primaries             : BT.709
    Transfer characteristics    : BT.709
    Matrix coefficients         : BT.709

    Audio #1
    ID                          : 2
    Format                      : AC-3
    Format/Info                 : Audio Coding 3
    Commercial name             : Dolby Digital
    Codec ID                    : A_AC3
    Duration                    : 1 h 47 min
    Bit rate mode               : Constant
    Bit rate                    : 640 kb/s
    Channel(s)                  : 6 channels
    Channel layout              : L R C LFE Ls Rs
    Sampling rate               : 48.0 kHz
    Frame rate                  : 31.250 FPS (1536 SPF)
    Bit depth                   : 16 bits
    Compression mode            : Lossy
    Stream size                 : 494 MiB (8%)
    Title                       : AC3_5.1_Bluray_Esp
    Language                    : Spanish
    Service kind                : Complete Main
    Default                     : Yes
    Forced                      : Yes

    Audio #2
    ID                          : 3
    Format                      : DTS
    Format/Info                 : Digital Theater Systems
    Codec ID                    : A_DTS
    Duration                    : 1 h 47 min
    Bit rate mode               : Constant
    Bit rate                    : 1 509 kb/s
    Channel(s)                  : 6 channels
    Channel layout              : C L R Ls Rs LFE
    Sampling rate               : 48.0 kHz
    Frame rate                  : 93.750 FPS (512 SPF)
    Bit depth                   : 24 bits
    Compression mode            : Lossy
    Stream size                 : 1.14 GiB (20%)
    Title                       : DTS_5.1_Bluray_Eng
    Language                    : English
    Default                     : No
    Forced                      : No

    Text #1
    ID                          : 4
    Format                      : PGS
    Muxing mode                 : zlib
    Codec ID                    : S_HDMV/PGS
    Codec ID/Info               : Picture based subtitle format used on BDs/HD-DVDs
    Duration                    : 1 h 47 min
    Bit rate                    : 25.9 kb/s
    Count of elements           : 2166
    Stream size                 : 19.9 MiB (0%)
    Title                       : Sub_Esp [PGS]
    Language                    : Spanish
    Default                     : No
    Forced                      : No

    Text #2
    ID                          : 5
    Format                      : PGS
    Muxing mode                 : zlib
    Codec ID                    : S_HDMV/PGS
    Codec ID/Info               : Picture based subtitle format used on BDs/HD-DVDs
    Duration                    : 1 h 45 min
    Bit rate                    : 37.1 kb/s
    Count of elements           : 2941
    Stream size                 : 28.0 MiB (0%)
    Title                       : Sub_Eng [PGS]
    Language                    : English
    Default                     : No
    Forced                      : No

    Text #3
    ID                          : 6
    Format                      : UTF-8
    Codec ID                    : S_TEXT/UTF8
    Codec ID/Info               : UTF-8 Plain Text
    Duration                    : 1 h 43 min
    Bit rate                    : 45 b/s
    Count of elements           : 1087
    Stream size                 : 34.7 KiB (0%)
    Title                       : Sub_Forzados
    Language                    : Spanish
    Default                     : Yes
    Forced                      : Yes

    Text #4
    ID                          : 7
    Format                      : UTF-8
    Codec ID                    : S_TEXT/UTF8
    Codec ID/Info               : UTF-8 Plain Text
    Duration                    : 1 h 43 min
    Bit rate                    : 0 b/s
    Count of elements           : 10
    Stream size                 : 278 Bytes (0%)
    Title                       : Sub_Esp
    Language                    : Spanish
    Default                     : No
    Forced                      : No

    Menu
    00:00:00.000                : en:Chapter 01
    00:05:25.908                : en:Chapter 02
    00:10:36.886                : en:Chapter 03
    00:16:38.330                : en:Chapter 04
    00:23:32.994                : en:Chapter 05
    00:30:25.281                : en:Chapter 06
    00:39:08.763                : en:Chapter 07
    00:47:23.549                : en:Chapter 08
    00:55:04.009                : en:Chapter 09
    01:01:54.544                : en:Chapter 10
    01:09:42.386                : en:Chapter 11
    01:17:41.573                : en:Chapter 12
    01:21:47.152                : en:Chapter 13
    01:24:41.367                : en:Chapter 14
    01:30:23.709                : en:Chapter 15
    01:40:20.931                : en:Chapter 16

  • Peso: 5.74 GiB

Sinopsis

Descargar Fuera de la Ley (2019) Full HD 1080p Latino. Un thriller de acción vertiginoso sobre un policía novato que inadvertidamente captura el asesinato de un joven traficante de drogas en la cámara de su cuerpo. Después de darse cuenta de que el asesinato fue cometido por policías corruptos, se une a la única persona de su comunidad que está dispuesta a ayudarla mientras intenta escapar de los criminales en busca de venganza y de la policía que está desesperada por destruir las imágenes incriminatorias.

Ficha técnica

Video trailer de la película

Enlaces de descarga

Rip de Bluray

Descargar Fuera de la Ley (2019) Full HD 1080p Latino




Aportes de DPeliculasHDmega la pass es:dpeliculashdmega.org Aportes de CinemaniaHD la pass es:cinemaniahdd.com

Películas relacionadas

  • Obi-Wan Kenobi (2022) Temporada 1 WEB-DL 1080p Latino

    Obi-Wan Kenobi (2022) Temporada 1 WEB-DL 1080p Latino

    2022
    Obi-Wan Kenobi (2022) Temporada 1 WEB-DL 1080p Latino

    0h 0m 2022

    Obi-Wan Kenobi (2022) Temporada 1 WEB-DL 1080p Latino. Miniserie de TV basada en la figura de Obi-Wan...

    Director: Joby Harold

    Género: Action & Adventure

    Actores: Vivien Lyra Blair

  • Warning (2021) PLACEBO Full HD 1080p Latino

    Warning (2021) PLACEBO Full HD 1080p Latino

    2021
    Warning (2021) PLACEBO Full HD 1080p Latino

    1h 25m 2021

    Descargar Warning (2021) PLACEBO Full HD 1080p Latino. Ambientada en un futuro no muy lejano, la obra...

    Director: Agata Alexander

    Género: Ciencia ficción

    Actores: Toni Garrn

  • Warning (2021) REMUX 1080p Latino

    Warning (2021) REMUX 1080p Latino

    2021
    Warning (2021) REMUX 1080p Latino

    1h 25m 2021

    Descargar Warning (2021) REMUX 1080p Latino. Ambientada en un futuro no muy lejano, la obra reflexiona...

    Director: Agata Alexander

    Género: Ciencia ficción

    Actores: Toni Garrn

Fuera de la Ley (2019) Full HD 1080p Latino pelicula full hd, Fuera de la Ley (2019) Full HD 1080p Latino mega latino, Fuera de la Ley (2019) Full HD 1080p Latino 4k latino, Fuera de la Ley (2019) Full HD 1080p Latino pelicula completa, Fuera de la Ley (2019) Full HD 1080p Latino descargar gratis, descargar Fuera de la Ley (2019) Full HD 1080p Latino pelicula latino, Fuera de la Ley (2019) Full HD 1080p Latino 1 link mega, Fuera de la Ley (2019) Full HD 1080p Latino 1 link google drive, Fuera de la Ley (2019) Full HD 1080p Latino hd 1080p latino.
Comentarios 0