×

¿Problemas para descargar con Mozilla, EDGE? Deshabilita la opción "Abrir vinculos en una pestaña nueva" tal como lo muestra ésta imagen.

Black Adam (2022) MA WEB-DL 1080p Latino

28 vistas

Información de Black Adam (2022) MA WEB-DL 1080p Latino

Datos de la película

  • Calidad: WEBDL
  • Audio: Español Latino AC3 5.1 WEB-DL - Ingles AC3 5.1 WEB-DL
  • Subtitulos: Español Latino SRT- FORZADOS SRT
  • Resolución: 1920x1080p
  • Formato: MKV
  • Codec: H.264
  • Encoder: Melkor
  • Mediainfo: Clic para Mostrar Datos Ver
  • Black Adam (2022) MA WebDL 1080p Latino.mkv
    Format                      : Matroska
    Format version              : Version 4
    File size                   : 7.87 GiB
    Duration                    : 2 h 4 min
    Overall bit rate            : 9 025 kb/s
    Movie name                  : Black Adam (2022) CinemaniaHDD.Net
    Encoded date                : UTC 2022-11-22 15:44:23
    Writing application         : mkvmerge v56.1.0 ('My Friend') 64-bit
    Writing library             : libebml v1.4.2 + libmatroska v1.6.4
    Attachments                 : CINEMANIAHD.png

    Video
    ID                          : 1
    Format                      : AVC
    Format/Info                 : Advanced Video Codec
    Format profile              : High@L4
    Format settings             : CABAC / 4 Ref Frames
    Format settings, CABAC      : Yes
    Format settings, Reference  : 4 frames
    Codec ID                    : V_MPEG4/ISO/AVC
    Duration                    : 2 h 4 min
    Bit rate                    : 8 000 kb/s
    Width                       : 1 920 pixels
    Height                      : 1 080 pixels
    Display aspect ratio        : 16:9
    Frame rate mode             : Constant
    Frame rate                  : 23.976 (24000/1001) FPS
    Color space                 : YUV
    Chroma subsampling          : 4:2:0
    Bit depth                   : 8 bits
    Scan type                   : Progressive
    Bits/(Pixel*Frame)          : 0.161
    Stream size                 : 6.86 GiB (87%)
    Title                       : Web HD1080p [CinemaniaHDD]
    Writing library             : x264 core 164 r3094 bfc87b7
    Encoding settings           : cabac=1 / ref=4 / deblock=1:-1:-1 / analyse=0x3:0x133 / me=umh / subme=9 / psy=1 / psy_rd=1.00:0.15 / mixed_ref=1 / me_range=16 / chroma_me=1 / trellis=2 / 8x8dct=1 / cqm=0 / deadzone=21,11 / fast_pskip=1 / chroma_qp_offset=-3 / threads=12 / lookahead_threads=1 / sliced_threads=0 / nr=0 / decimate=1 / interlaced=0 / bluray_compat=0 / stitchable=1 / constrained_intra=0 / bframes=3 / b_pyramid=2 / b_adapt=2 / b_bias=0 / direct=3 / weightb=1 / open_gop=0 / weightp=2 / keyint=48 / keyint_min=4 / scenecut=0 / intra_refresh=0 / rc_lookahead=48 / rc=abr / mbtree=1 / bitrate=8000 / ratetol=1.0 / qcomp=0.60 / qpmin=0 / qpmax=69 / qpstep=4 / vbv_maxrate=8800 / vbv_bufsize=16000 / nal_hrd=none / filler=0 / ip_ratio=1.40 / aq=1:1.00
    Default                     : Yes
    Forced                      : Yes
    Color range                 : Limited
    Color primaries             : BT.709
    Transfer characteristics    : BT.709
    Matrix coefficients         : BT.709

    Audio #1
    ID                          : 2
    Format                      : AC-3
    Format/Info                 : Audio Coding 3
    Commercial name             : Dolby Digital
    Codec ID                    : A_AC3
    Duration                    : 2 h 4 min
    Bit rate mode               : Constant
    Bit rate                    : 384 kb/s
    Channel(s)                  : 6 channels
    Channel layout              : L R C LFE Ls Rs
    Sampling rate               : 48.0 kHz
    Frame rate                  : 31.250 FPS (1536 SPF)
    Compression mode            : Lossy
    Stream size                 : 343 MiB (4%)
    Title                       : Español Latino [CinemaniaHDD]
    Language                    : Spanish
    Service kind                : Complete Main
    Default                     : Yes
    Forced                      : Yes

    Audio #2
    ID                          : 3
    Format                      : E-AC-3 JOC
    Format/Info                 : Enhanced AC-3 with Joint Object Coding
    Commercial name             : Dolby Digital Plus with Dolby Atmos
    Codec ID                    : A_EAC3
    Duration                    : 2 h 4 min
    Bit rate mode               : Constant
    Bit rate                    : 768 kb/s
    Channel(s)                  : 6 channels
    Channel layout              : L R C LFE Ls Rs
    Sampling rate               : 48.0 kHz
    Frame rate                  : 31.250 FPS (1536 SPF)
    Compression mode            : Lossy
    Delay relative to video     : 83 ms
    Stream size                 : 686 MiB (9%)
    Title                       : Ingles [CinemaniaHDD]
    Language                    : English
    Service kind                : Complete Main
    Default                     : No
    Forced                      : No
    Complexity index            : 16
    Number of dynamic objects   : 15
    Bed channel count           : 1 channel
    Bed channel configuration   : LFE

    Text #1
    ID                          : 4
    Format                      : UTF-8
    Codec ID                    : S_TEXT/UTF8
    Codec ID/Info               : UTF-8 Plain Text
    Duration                    : 1 h 44 min
    Bit rate                    : 2 b/s
    Count of elements           : 94
    Stream size                 : 2.20 KiB (0%)
    Title                       : Forzados-SRT [CinemaniaHDD]
    Language                    : Spanish
    Default                     : Yes
    Forced                      : Yes

    Text #2
    ID                          : 5
    Format                      : UTF-8
    Codec ID                    : S_TEXT/UTF8
    Codec ID/Info               : UTF-8 Plain Text
    Duration                    : 2 h 3 min
    Bit rate                    : 43 b/s
    Count of elements           : 1258
    Stream size                 : 39.3 KiB (0%)
    Title                       : Español-SRT [CinemaniaHDD]
    Language                    : Spanish
    Default                     : No
    Forced                      : No

    Text #3
    ID                          : 6
    Format                      : UTF-8
    Codec ID                    : S_TEXT/UTF8
    Codec ID/Info               : UTF-8 Plain Text
    Duration                    : 1 h 56 min
    Bit rate                    : 46 b/s
    Count of elements           : 1334
    Stream size                 : 39.8 KiB (0%)
    Title                       : Ingles-SRT [CinemaniaHDD]
    Language                    : English
    Default                     : No
    Forced                      : No

    Menu
    00:00:00.000                : 1
    00:10:22.000                : 2
    00:19:56.000                : 3
    00:29:28.000                : 4
    00:38:32.000                : 5
    00:50:39.000                : 6
    01:00:17.000                : 7
    01:09:40.000                : 8
    01:19:31.000                : 9
    01:29:06.000                : 10
    01:40:14.000                : 11
    01:49:34.000                : 12
    01:53:06.000                : 13

  • Peso: 7.87 GiB

Sinopsis

Descargar Black Adam (2022) MA WEB-DL 1080p Latino. Casi 5.000 años después de haber sido dotado de los poderes omnipotentes de los antiguos dioses -y encarcelado con la misma rapidez-, Black Adam es liberado de su tumba terrenal, listo para desatar su forma única de justicia en el mundo moderno.

Ficha técnica

Video trailer de la película

Enlaces de descarga

Rip de Bluray

Descargar Black Adam (2022) MA WEB-DL 1080p Latino




Aportes de DPeliculasHDmega la pass es:dpeliculashdmega.org Aportes de CinemaniaHD la pass es:cinemaniahdd.com

Películas relacionadas

descargar Black Adam (2022) MA WEB-DL 1080p Latino WEBDL 1080p gratis, Black Adam (2022) MA WEB-DL 1080p Latino WEBDL mega 1 link, Black Adam (2022) MA WEB-DL 1080p Latino WEBDL pelicula completa, descargar Black Adam (2022) MA WEB-DL 1080p Latino WEBDL gratis en mega.

Black Adam (2022) MA WEB-DL 1080p Latino pelicula full hd, Black Adam (2022) MA WEB-DL 1080p Latino mega latino, Black Adam (2022) MA WEB-DL 1080p Latino 4k latino, Black Adam (2022) MA WEB-DL 1080p Latino pelicula completa, Black Adam (2022) MA WEB-DL 1080p Latino descargar gratis, descargar Black Adam (2022) MA WEB-DL 1080p Latino pelicula latino, Black Adam (2022) MA WEB-DL 1080p Latino 1 link mega, Black Adam (2022) MA WEB-DL 1080p Latino 1 link google drive, Black Adam (2022) MA WEB-DL 1080p Latino hd 1080p latino.
Comentarios 0