×

¿Problemas para descargar con Mozilla, EDGE? Deshabilita la opción "Abrir vinculos en una pestaña nueva" tal como lo muestra ésta imagen.

Black ’47 (2018) REMUX 1080p Latino

583 vistas

Información de Black ’47 (2018) REMUX 1080p Latino

Datos de la película

  • Calidad: Full 1080p
  • Audio: Se especifica abajo de la Sinopsis
  • Subtitulos: Español Latino SRT- FORZADOS SRT
  • Resolución: 1920x1080p
  • Formato: MKV
  • Codec: H.264
  • Encoder: CinefiloCool
  • Mediainfo: Clic para Mostrar Datos Ver
  • Black '47 (2018) REMUX 1080p Latino-CMHDD.mkv
    Format                      : Matroska
    Format version              : Version 4
    File size                   : 22.1 GiB
    Duration                    : 1 h 39 min
    Overall bit rate mode       : Variable
    Overall bit rate            : 31.7 Mb/s
    Movie name                  : CinemaniaHDD.Net
    Encoded date                : UTC 2020-02-05 17:59:45
    Writing application         : mkvmerge v42.0.0 ('Overtime') 64-bit
    Writing library             : libebml v1.3.10 + libmatroska v1.5.2
    Attachments                 : CINEMANIAHD.png

    Video
    ID                          : 1
    Format                      : AVC
    Format/Info                 : Advanced Video Codec
    Format profile              : High@L4.1
    Format settings             : CABAC / 4 Ref Frames
    Format settings, CABAC      : Yes
    Format settings, ReFrames   : 4 frames
    Codec ID                    : V_MPEG4/ISO/AVC
    Duration                    : 1 h 39 min
    Bit rate mode               : Constant
    Bit rate                    : 28.0 Mb/s
    Nominal bit rate            : 30.0 Mb/s
    Width                       : 1 920 pixels
    Height                      : 1 080 pixels
    Display aspect ratio        : 16:9
    Frame rate mode             : Constant
    Frame rate                  : 24.000 FPS
    Standard                    : NTSC
    Color space                 : YUV
    Chroma subsampling          : 4:2:0
    Bit depth                   : 8 bits
    Scan type                   : Progressive
    Bits/(Pixel*Frame)          : 0.562
    Stream size                 : 19.5 GiB (88%)
    Title                       : Full HD1080p [REMUX]
    Default                     : Yes
    Forced                      : Yes
    Color range                 : Limited
    Color primaries             : BT.709
    Transfer characteristics    : BT.709
    Matrix coefficients         : BT.709

    Audio #1
    ID                          : 2
    Format                      : AC-3
    Format/Info                 : Audio Coding 3
    Commercial name             : Dolby Digital
    Codec ID                    : A_AC3
    Duration                    : 1 h 39 min
    Bit rate mode               : Constant
    Bit rate                    : 256 kb/s
    Channel(s)                  : 2 channels
    Channel layout              : L R
    Sampling rate               : 48.0 kHz
    Frame rate                  : 31.250 FPS (1536 SPF)
    Bit depth                   : 16 bits
    Compression mode            : Lossy
    Stream size                 : 183 MiB (1%)
    Title                       : AC3_2.0_Capt_Esp
    Language                    : Spanish
    Service kind                : Complete Main
    Default                     : Yes
    Forced                      : Yes

    Audio #2
    ID                          : 3
    Format                      : DTS XLL
    Format/Info                 : Digital Theater Systems
    Commercial name             : DTS-HD Master Audio
    Codec ID                    : A_DTS
    Duration                    : 1 h 39 min
    Bit rate mode               : Variable
    Bit rate                    : 3 512 kb/s
    Channel(s)                  : 6 channels
    Channel layout              : C L R Ls Rs LFE
    Sampling rate               : 48.0 kHz
    Frame rate                  : 93.750 FPS (512 SPF)
    Bit depth                   : 24 bits
    Compression mode            : Lossless
    Stream size                 : 2.45 GiB (11%)
    Title                       : DTS-HD_5.1_Bluray_Eng
    Language                    : English
    Default                     : No
    Forced                      : No

    Text #1
    ID                          : 4
    Format                      : UTF-8
    Codec ID                    : S_TEXT/UTF8
    Codec ID/Info               : UTF-8 Plain Text
    Duration                    : 1 h 28 min
    Bit rate                    : 0 b/s
    Count of elements           : 4
    Stream size                 : 114 Bytes (0%)
    Title                       : Sub_Forzados
    Language                    : Spanish
    Default                     : Yes
    Forced                      : Yes

    Text #2
    ID                          : 5
    Format                      : UTF-8
    Codec ID                    : S_TEXT/UTF8
    Codec ID/Info               : UTF-8 Plain Text
    Duration                    : 1 h 33 min
    Bit rate                    : 29 b/s
    Count of elements           : 623
    Stream size                 : 20.6 KiB (0%)
    Title                       : Sub_Esp
    Language                    : Spanish
    Default                     : No
    Forced                      : No

    Menu
    00:00:00.000                : :Chapter 1
    00:12:40.125                : :Chapter 2
    00:28:20.542                : :Chapter 3
    00:41:42.667                : :Chapter 4
    00:52:51.667                : :Chapter 5
    01:07:32.000                : :Chapter 6
    01:19:49.542                : :Chapter 7
    01:35:51.000                : :Chapter 8

  • Peso: 22.1 GiB

Sinopsis

Descargar Black ’47 (2018) REMUX 1080p Latino. En Irlanda durante la Gran Hambruna, un Ranger irlandés que ha estado luchando por el ejército británico en el extranjero abandona su puesto para reunirse con su familia. A pesar de experimentar los horrores de la guerra, se sorprende por la destrucción de su patria por el hambre y la brutalización de su pueblo y su familia.

Audio Español Latino AC3 2.0 Capturado – Ingles DTS-HD 5.1 Bluray

Ficha técnica

  • Titulo original: Black '47
  • Fecha de lanzamiento: 05-09-2018 (Ireland, Luxembourg)
  • Director: Lance Daly
  • Género: Drama, Remux, Western

Video trailer de la película

Enlaces de descarga

Rip de Bluray

Descargar Black ’47 (2018) REMUX 1080p Latino




Aportes de DPeliculasHDmega la pass es:dpeliculashdmega.org Aportes de CinemaniaHD la pass es:cinemaniahdd.com
Guardado en : Drama , Remux , Western

Películas relacionadas

descargar Black ’47 (2018) REMUX 1080p Latino Full 1080p 1080p gratis, Black ’47 (2018) REMUX 1080p Latino Full 1080p mega 1 link, Black ’47 (2018) REMUX 1080p Latino Full 1080p pelicula completa, descargar Black ’47 (2018) REMUX 1080p Latino Full 1080p gratis en mega.

Black ’47 (2018) REMUX 1080p Latino pelicula full hd, Black ’47 (2018) REMUX 1080p Latino mega latino, Black ’47 (2018) REMUX 1080p Latino 4k latino, Black ’47 (2018) REMUX 1080p Latino pelicula completa, Black ’47 (2018) REMUX 1080p Latino descargar gratis, descargar Black ’47 (2018) REMUX 1080p Latino pelicula latino, Black ’47 (2018) REMUX 1080p Latino 1 link mega, Black ’47 (2018) REMUX 1080p Latino 1 link google drive, Black ’47 (2018) REMUX 1080p Latino hd 1080p latino.
Comentarios 0