×

¿Problemas para descargar con Mozilla, EDGE? Deshabilita la opción "Abrir vinculos en una pestaña nueva" tal como lo muestra ésta imagen.

Bitelchus (1988) REMUX 1080p Latino – CMHDD

358 vistas

Información de Bitelchus (1988) REMUX 1080p Latino – CMHDD

Datos de la película

  • Calidad: Full 1080p
  • Audio: Español Latino AC3 2.0 BLURAY - Ingles AC3 5.1 BLURAY
  • Subtitulos: Español Latino SRT
  • Resolución: 1920x1080p
  • Formato: MKV
  • Codec: H.264
  • Encoder: Dracarys
  • Mediainfo: Clic para Mostrar Datos Ver
  • Format                      : Matroska
    Format version              : Version 4
    File size                   : 15.1 GiB
    Duration                    : 1 h 32 min
    Overall bit rate mode       : Variable
    Overall bit rate            : 23.4 Mb/s
    Movie name                  : Bitelchus (1988) REMUX 1080p Latino - CMHDD
    Encoded date                : UTC 2020-05-17 03:10:44
    Writing application         : mkvmerge v46.0.0 ('No Deeper Escape') 64-bit
    Writing library             : libebml v1.3.10 + libmatroska v1.5.2

    Video
    ID                          : 1
    Format                      : VC-1
    Format profile              : Advanced@L3
    Codec ID                    : V_MS/VFW/FOURCC / WVC1
    Codec ID/Hint               : Microsoft
    Duration                    : 1 h 32 min
    Bit rate                    : 20.9 Mb/s
    Width                       : 1 920 pixels
    Height                      : 1 080 pixels
    Display aspect ratio        : 16:9
    Frame rate mode             : Constant
    Frame rate                  : 23.976 (24000/1001) FPS
    Color space                 : YUV
    Chroma subsampling          : 4:2:0
    Bit depth                   : 8 bits
    Scan type                   : Progressive
    Compression mode            : Lossy
    Bits/(Pixel*Frame)          : 0.421
    Stream size                 : 13.5 GiB (89%)
    Default                     : Yes
    Forced                      : No

    Audio #1
    ID                          : 2
    Format                      : AC-3
    Format/Info                 : Audio Coding 3
    Commercial name             : Dolby Digital
    Codec ID                    : A_AC3
    Duration                    : 1 h 32 min
    Bit rate mode               : Constant
    Bit rate                    : 192 kb/s
    Channel(s)                  : 2 channels
    Channel layout              : L R
    Sampling rate               : 48.0 kHz
    Frame rate                  : 31.250 FPS (1536 SPF)
    Compression mode            : Lossy
    Stream size                 : 126 MiB (1%)
    Language                    : Spanish
    Service kind                : Complete Main
    Default                     : Yes
    Forced                      : No

    Audio #2
    ID                          : 3
    Format                      : MLP FBA
    Format/Info                 : Meridian Lossless Packing FBA
    Commercial name             : Dolby TrueHD
    Codec ID                    : A_TRUEHD
    Duration                    : 1 h 32 min
    Bit rate mode               : Variable
    Bit rate                    : 1 580 kb/s
    Maximum bit rate            : 2 871 kb/s
    Channel(s)                  : 6 channels
    Channel layout              : L R C LFE Ls Rs
    Sampling rate               : 48.0 kHz
    Frame rate                  : 1 200.000 FPS (40 SPF)
    Compression mode            : Lossless
    Stream size                 : 1.02 GiB (7%)
    Language                    : English
    Default                     : No
    Forced                      : No

    Audio #3
    ID                          : 4
    Format                      : AC-3
    Format/Info                 : Audio Coding 3
    Commercial name             : Dolby Digital
    Codec ID                    : A_AC3
    Duration                    : 1 h 32 min
    Bit rate mode               : Constant
    Bit rate                    : 640 kb/s
    Channel(s)                  : 6 channels
    Channel layout              : L R C LFE Ls Rs
    Sampling rate               : 48.0 kHz
    Frame rate                  : 31.250 FPS (1536 SPF)
    Compression mode            : Lossy
    Stream size                 : 422 MiB (3%)
    Language                    : English
    Service kind                : Complete Main
    Default                     : No
    Forced                      : No

    Text #1
    ID                          : 5
    Format                      : UTF-8
    Codec ID                    : S_TEXT/UTF8
    Codec ID/Info               : UTF-8 Plain Text
    Duration                    : 1 h 31 min
    Bit rate                    : 50 b/s
    Count of elements           : 992
    Stream size                 : 34.1 KiB (0%)
    Language                    : Spanish
    Default                     : No
    Forced                      : No

    Text #2
    ID                          : 6
    Format                      : PGS
    Muxing mode                 : zlib
    Codec ID                    : S_HDMV/PGS
    Codec ID/Info               : Picture based subtitle format used on BDs/HD-DVDs
    Duration                    : 1 h 31 min
    Bit rate                    : 27.2 kb/s
    Count of elements           : 1986
    Stream size                 : 17.8 MiB (0%)
    Language                    : Spanish
    Default                     : No
    Forced                      : No

  • Peso: 15.1 GiB

Sinopsis

¿Qué debería hacer una pareja de fantasmas yupis si su estrafalario hogar de Nueva Inglaterra se llenara de elegantes visitantes neoyorquinos? Pedir ayuda a un exorcista para aterrar a los intrusos con el fin de que abandonen la casa. ¿El resultado? Una de las más grandes, sorprendentes y sobrenaturales películas jamás filmada. Bitelchus (Michael Keaton) es una criatura de ultratumba repugnante y terrorífica, un fenómeno asustando y bromeando que se gira y se transforma en grotescas formas, traga insectos y no puede dejar a las mujeres (vivas o muertas) en paz.

Ficha técnica

Video trailer de la película

Enlaces de descarga

Rip de Bluray

Descargar Bitelchus (1988) REMUX 1080p Latino – CMHDD




Aportes de DPeliculasHDmega la pass es:dpeliculashdmega.org Aportes de CinemaniaHD la pass es:cinemaniahdd.com
Guardado en : Comedia , Fantasía

Películas relacionadas

  • Mi amigo el dragón (2016) Full HD 1080p Latino

    Mi amigo el dragón (2016) Full HD 1080p Latino

    2016
    Mi amigo el dragón (2016) Full HD 1080p Latino

    1h 43m 2016

    Descargar Mi amigo el dragón (2016) Full HD 1080p Latino. Durante años el Sr. Meacham, un viejo tallador...

    Director: Joe Nolan

    Género: Aventura

    Actores: William J. Rawbone

  • Mi amigo el dragón (2016) REMUX 1080p Latino

    Mi amigo el dragón (2016) REMUX 1080p Latino

    2016
    Mi amigo el dragón (2016) REMUX 1080p Latino

    1h 43m 2016

    Descargar Mi amigo el dragón (2016) REMUX 1080p Latino. Durante años el Sr. Meacham, un viejo tallador...

    Director: Joe Nolan

    Género: Aventura

    Actores: William J. Rawbone

  • Desde mi cielo (2009) REMUX 1080p Latino

    Desde mi cielo (2009) REMUX 1080p Latino

    2009
    Desde mi cielo (2009) REMUX 1080p Latino

    2h 15m 2009

    Descargar Desde mi cielo (2009) REMUX 1080p Latino. La historia gira en torno a Susie Salmon, que fue...

    Director: Peter Jackson

    Género: Drama

    Actores: William Zielinski

  • Black Panther (2018) IMAX Full HD 1080p Latino

    Black Panther (2018) IMAX Full HD 1080p Latino

    2018
    Black Panther (2018) IMAX Full HD 1080p Latino

    2 h 14 min 2018

    Descargar Black Panther (2018) IMAX Full HD 1080p Latino. Después de los acontecimientos de "Capitán...

    Director: Ryan Coogler

    Género: Acción

    Actores: Zola Williams

descargar Bitelchus (1988) REMUX 1080p Latino – CMHDD Full 1080p 1080p gratis, Bitelchus (1988) REMUX 1080p Latino – CMHDD Full 1080p mega 1 link, Bitelchus (1988) REMUX 1080p Latino – CMHDD Full 1080p pelicula completa, descargar Bitelchus (1988) REMUX 1080p Latino – CMHDD Full 1080p gratis en mega.

Bitelchus (1988) REMUX 1080p Latino – CMHDD pelicula full hd, Bitelchus (1988) REMUX 1080p Latino – CMHDD mega latino, Bitelchus (1988) REMUX 1080p Latino – CMHDD 4k latino, Bitelchus (1988) REMUX 1080p Latino – CMHDD pelicula completa, Bitelchus (1988) REMUX 1080p Latino – CMHDD descargar gratis, descargar Bitelchus (1988) REMUX 1080p Latino – CMHDD pelicula latino, Bitelchus (1988) REMUX 1080p Latino – CMHDD 1 link mega, Bitelchus (1988) REMUX 1080p Latino – CMHDD 1 link google drive, Bitelchus (1988) REMUX 1080p Latino – CMHDD hd 1080p latino.
Comentarios 0