×

¿Problemas para descargar con Mozilla, EDGE? Deshabilita la opción "Abrir vinculos en una pestaña nueva" tal como lo muestra ésta imagen.

Bitelchus (1988) HD 1080p Latino – CMHDD

396 vistas

Información de Bitelchus (1988) HD 1080p Latino – CMHDD

Datos de la película

  • Calidad: 1080p
  • Audio: Español Latino AC3 2.0 BLURAY - Ingles AC3 5.1 BLURAY
  • Subtitulos: Español Latino SRT
  • Resolución: 1920x1080p
  • Formato: MKV
  • Codec: H.264
  • Encoder: Dracarys
  • Mediainfo: Clic para Mostrar Datos Ver
  • Format                      : Matroska
    Format version              : Version 4
    File size                   : 2.74 GiB
    Duration                    : 1 h 32 min
    Overall bit rate            : 4 253 kb/s
    Movie name                  : Bitelchus (1988) HD 1080p Latino - CMHDD
    Encoded date                : UTC 2020-05-17 03:18:19
    Writing application         : mkvmerge v46.0.0 ('No Deeper Escape') 64-bit
    Writing library             : libebml v1.3.10 + libmatroska v1.5.2

    Video
    ID                          : 1
    Format                      : AVC
    Format/Info                 : Advanced Video Codec
    Format profile              : High@L4.1
    Format settings             : CABAC / 4 Ref Frames
    Format settings, CABAC      : Yes
    Format settings, Reference  : 4 frames
    Codec ID                    : V_MPEG4/ISO/AVC
    Duration                    : 1 h 32 min
    Bit rate                    : 3 500 kb/s
    Width                       : 1 918 pixels
    Height                      : 1 080 pixels
    Display aspect ratio        : 16:9
    Frame rate mode             : Constant
    Frame rate                  : 23.976 (24000/1001) FPS
    Color space                 : YUV
    Chroma subsampling          : 4:2:0
    Bit depth                   : 8 bits
    Scan type                   : Progressive
    Bits/(Pixel*Frame)          : 0.070
    Stream size                 : 2.20 GiB (80%)
    Writing library             : x264 core 157 r2935 545de2f
    Encoding settings           : cabac=1 / ref=4 / deblock=1:0:0 / analyse=0x3:0x113 / me=hex / subme=8 / psy=1 / psy_rd=1.00:0.00 / mixed_ref=1 / me_range=16 / chroma_me=1 / trellis=2 / 8x8dct=1 / cqm=0 / deadzone=21,11 / fast_pskip=1 / chroma_qp_offset=-2 / threads=24 / lookahead_threads=4 / sliced_threads=0 / nr=0 / decimate=1 / interlaced=0 / bluray_compat=0 / constrained_intra=0 / bframes=3 / b_pyramid=2 / b_adapt=1 / b_bias=0 / direct=3 / weightb=1 / open_gop=0 / weightp=2 / keyint=240 / keyint_min=24 / scenecut=40 / intra_refresh=0 / rc_lookahead=50 / rc=abr / mbtree=1 / bitrate=3500 / ratetol=1.0 / qcomp=0.60 / qpmin=0 / qpmax=69 / qpstep=4 / vbv_maxrate=62500 / vbv_bufsize=78125 / nal_hrd=none / filler=0 / ip_ratio=1.40 / aq=1:1.00
    Default                     : Yes
    Forced                      : No
    Color range                 : Limited
    Color primaries             : BT.709
    Transfer characteristics    : BT.709
    Matrix coefficients         : BT.709

    Audio #1
    ID                          : 2
    Format                      : AC-3
    Format/Info                 : Audio Coding 3
    Commercial name             : Dolby Digital
    Codec ID                    : A_AC3
    Duration                    : 1 h 32 min
    Bit rate mode               : Constant
    Bit rate                    : 192 kb/s
    Channel(s)                  : 2 channels
    Channel layout              : L R
    Sampling rate               : 48.0 kHz
    Frame rate                  : 31.250 FPS (1536 SPF)
    Compression mode            : Lossy
    Stream size                 : 126 MiB (5%)
    Language                    : Spanish
    Service kind                : Complete Main
    Default                     : Yes
    Forced                      : No

    Audio #2
    ID                          : 3
    Format                      : AC-3
    Format/Info                 : Audio Coding 3
    Commercial name             : Dolby Digital
    Codec ID                    : A_AC3
    Duration                    : 1 h 32 min
    Bit rate mode               : Constant
    Bit rate                    : 640 kb/s
    Channel(s)                  : 6 channels
    Channel layout              : L R C LFE Ls Rs
    Sampling rate               : 48.0 kHz
    Frame rate                  : 31.250 FPS (1536 SPF)
    Compression mode            : Lossy
    Stream size                 : 422 MiB (15%)
    Language                    : English
    Service kind                : Complete Main
    Default                     : No
    Forced                      : No

    Text
    ID                          : 4
    Format                      : UTF-8
    Codec ID                    : S_TEXT/UTF8
    Codec ID/Info               : UTF-8 Plain Text
    Duration                    : 1 h 31 min
    Bit rate                    : 50 b/s
    Count of elements           : 992
    Stream size                 : 34.1 KiB (0%)
    Language                    : Spanish
    Default                     : No
    Forced                      : No

    Menu
    00:00:00.000                : :Chapter 1
    00:02:38.659                : :Chapter 2
    00:05:44.010                : :Chapter 3
    00:08:11.700                : :Chapter 4
    00:10:56.114                : :Chapter 5
    00:13:18.923                : :Chapter 6
    00:16:07.800                : :Chapter 7
    00:19:35.341                : :Chapter 8
    00:22:11.121                : :Chapter 9
    00:24:53.117                : :Chapter 10
    00:26:46.313                : :Chapter 11
    00:31:42.734                : :Chapter 12
    00:37:26.911                : :Chapter 13
    00:38:24.844                : :Chapter 14
    00:43:55.007                : :Chapter 15
    00:50:45.584                : :Chapter 16
    00:55:02.007                : :Chapter 17
    00:58:53.780                : :Chapter 18
    01:01:02.075                : :Chapter 19
    01:02:43.009                : :Chapter 20
    01:04:03.715                : :Chapter 21
    01:07:16.366                : :Chapter 22
    01:11:38.044                : :Chapter 23
    01:17:12.628                : :Chapter 24
    01:19:26.178                : :Chapter 25
    01:24:50.085                : :Chapter 26
    01:27:03.885                : :Chapter 27
    01:28:21.046                : :Chapter 28

  • Peso: 2.74 GiB

Sinopsis

¿Qué debería hacer una pareja de fantasmas yupis si su estrafalario hogar de Nueva Inglaterra se llenara de elegantes visitantes neoyorquinos? Pedir ayuda a un exorcista para aterrar a los intrusos con el fin de que abandonen la casa. ¿El resultado? Una de las más grandes, sorprendentes y sobrenaturales películas jamás filmada. Bitelchus (Michael Keaton) es una criatura de ultratumba repugnante y terrorífica, un fenómeno asustando y bromeando que se gira y se transforma en grotescas formas, traga insectos y no puede dejar a las mujeres (vivas o muertas) en paz.

Ficha técnica

Video trailer de la película

Enlaces de descarga

Rip de Bluray

Descargar Bitelchus (1988) HD 1080p Latino – CMHDD




Aportes de DPeliculasHDmega la pass es:dpeliculashdmega.org Aportes de CinemaniaHD la pass es:cinemaniahdd.com
Guardado en : Comedia , Fantasía

Películas relacionadas

  • M3GAN (2023) AMZN WEB-DL 4K UHD HDR Latino

    M3GAN (2023) AMZN WEB-DL 4K UHD HDR Latino

    2022
    M3GAN (2023) AMZN WEB-DL 4K UHD HDR Latino

    1h 42m 2022

    Descargar M3GAN (2023) AMZN WEB-DL 4K UHD HDR Latino. Cuando Gemma se convierte en la cuidadora de su...

    Director: Stephen W. Moore

    Género: 4K HDR

    Actores: Violet McGraw

  • M3GAN (2022) MA WEB-DL 1080p Latino

    M3GAN (2022) MA WEB-DL 1080p Latino

    2022
    M3GAN (2022) MA WEB-DL 1080p Latino

    1h 42m 2022

    Descargar M3GAN (2022) MA WEB-DL 1080p Latino. Cuando Gemma se convierte en la cuidadora de su sobrina...

    Director: Stephen W. Moore

    Género: Ciencia ficción

    Actores: Violet McGraw

  • Noche sin paz (2022) PLACEBO Full HD 1080p Latino

    Noche sin paz (2022) PLACEBO Full HD 1080p Latino

    2022
    Noche sin paz (2022) PLACEBO Full HD 1080p Latino

    1h 41m 2022

    Descargar Noche sin paz (2022) PLACEBO Full HD 1080p Latino. Cuando un equipo de mercenarios irrumpe...

    Director: Tyshana Hobson

    Género: Acción

    Actores: Yoon Cha-Lee

  • Noche sin paz (2022) HD 1080p Latino

    Noche sin paz (2022) HD 1080p Latino

    2022
    Noche sin paz (2022) HD 1080p Latino

    1h 41m 2022

    Descargar Noche sin paz (2022) HD 1080p Latino. Cuando un equipo de mercenarios irrumpe en Nochebuena...

    Director: Tyshana Hobson

    Género: Acción

    Actores: Yoon Cha-Lee

  • Noche sin paz (2022) REMUX 1080p Latino

    Noche sin paz (2022) REMUX 1080p Latino

    2022
    Noche sin paz (2022) REMUX 1080p Latino

    1h 41m 2022

    Descargar Noche sin paz (2022) REMUX 1080p Latino. Cuando un equipo de mercenarios irrumpe en Nochebuena...

    Director: Tyshana Hobson

    Género: Acción

    Actores: Yoon Cha-Lee

descargar Bitelchus (1988) HD 1080p Latino – CMHDD 1080p 1080p gratis, Bitelchus (1988) HD 1080p Latino – CMHDD 1080p mega 1 link, Bitelchus (1988) HD 1080p Latino – CMHDD 1080p pelicula completa, descargar Bitelchus (1988) HD 1080p Latino – CMHDD 1080p gratis en mega.

Bitelchus (1988) HD 1080p Latino – CMHDD pelicula full hd, Bitelchus (1988) HD 1080p Latino – CMHDD mega latino, Bitelchus (1988) HD 1080p Latino – CMHDD 4k latino, Bitelchus (1988) HD 1080p Latino – CMHDD pelicula completa, Bitelchus (1988) HD 1080p Latino – CMHDD descargar gratis, descargar Bitelchus (1988) HD 1080p Latino – CMHDD pelicula latino, Bitelchus (1988) HD 1080p Latino – CMHDD 1 link mega, Bitelchus (1988) HD 1080p Latino – CMHDD 1 link google drive, Bitelchus (1988) HD 1080p Latino – CMHDD hd 1080p latino.
Comentarios 0