×

¿Problemas para descargar con Mozilla, EDGE? Deshabilita la opción "Abrir vinculos en una pestaña nueva" tal como lo muestra ésta imagen.

Birds Of Prey (2020) AMZN Web-DL 1080p Latino

2.561 vistas

Información de Birds Of Prey (2020) AMZN Web-DL 1080p Latino

Datos de la película

  • Calidad: WEBDL
  • Audio: Se especifica abajo de la Sinopsis
  • Subtitulos: Español Latino SRT - Ingles SRT
  • Resolución: 1920x800p
  • Formato: MKV
  • Codec: H.264
  • Encoder: CinefiloCool
  • Mediainfo: Clic para Mostrar Datos Ver
  • Birds Of Prey (2020) AMZN Web-DL 1080p Latino-CMHDD.mkv
    Format                      : Matroska
    Format version              : Version 4
    File size                   : 7.71 GiB
    Duration                    : 1 h 48 min
    Overall bit rate            : 10.1 Mb/s
    Movie name                  : Birds Of Prey (2019) CinemaniaHDD.Net
    Encoded date                : UTC 2020-03-25 01:44:14
    Writing application         : mkvmerge v42.0.0 ('Overtime') 64-bit
    Writing library             : libebml v1.3.10 + libmatroska v1.5.2
    Attachments                 : CINEMANIAHD.png

    Video
    ID                          : 1
    Format                      : AVC
    Format/Info                 : Advanced Video Codec
    Format profile              : High@L4
    Format settings             : CABAC / 4 Ref Frames
    Format settings, CABAC      : Yes
    Format settings, ReFrames   : 4 frames
    Codec ID                    : V_MPEG4/ISO/AVC
    Duration                    : 1 h 48 min
    Bit rate mode               : Constant
    Bit rate                    : 9 242 kb/s
    Nominal bit rate            : 10 000 kb/s
    Width                       : 1 920 pixels
    Height                      : 800 pixels
    Display aspect ratio        : 2.40:1
    Frame rate mode             : Constant
    Frame rate                  : 23.976 (24000/1001) FPS
    Color space                 : YUV
    Chroma subsampling          : 4:2:0
    Bit depth                   : 8 bits
    Scan type                   : Progressive
    Bits/(Pixel*Frame)          : 0.251
    Stream size                 : 7.03 GiB (91%)
    Title                       : Web HD1080p [CinemaniaHDD]
    Default                     : Yes
    Forced                      : No
    Color range                 : Limited
    Color primaries             : BT.709
    Transfer characteristics    : BT.709
    Matrix coefficients         : BT.709

    Audio #1
    ID                          : 2
    Format                      : AC-3
    Format/Info                 : Audio Coding 3
    Commercial name             : Dolby Digital
    Codec ID                    : A_AC3
    Duration                    : 1 h 48 min
    Bit rate mode               : Constant
    Bit rate                    : 256 kb/s
    Channel(s)                  : 2 channels
    Channel layout              : L R
    Sampling rate               : 48.0 kHz
    Frame rate                  : 31.250 FPS (1536 SPF)
    Bit depth                   : 16 bits
    Compression mode            : Lossy
    Delay relative to video     : 24 ms
    Stream size                 : 199 MiB (3%)
    Title                       : Español Latino [CinemaniaHDD]
    Language                    : Spanish
    Service kind                : Complete Main
    Default                     : Yes
    Forced                      : No

    Audio #2
    ID                          : 3
    Format                      : E-AC-3
    Format/Info                 : Enhanced AC-3
    Commercial name             : Dolby Digital Plus
    Codec ID                    : A_EAC3
    Duration                    : 1 h 48 min
    Bit rate mode               : Constant
    Bit rate                    : 640 kb/s
    Channel(s)                  : 6 channels
    Channel layout              : L R C LFE Ls Rs
    Sampling rate               : 48.0 kHz
    Frame rate                  : 31.250 FPS (1536 SPF)
    Compression mode            : Lossy
    Stream size                 : 498 MiB (6%)
    Title                       : Ingles [CinemaniaHDD]
    Language                    : English
    Service kind                : Complete Main
    Default                     : No
    Forced                      : No

    Text #1
    ID                          : 4
    Format                      : UTF-8
    Codec ID                    : S_TEXT/UTF8
    Codec ID/Info               : UTF-8 Plain Text
    Duration                    : 20 min 2 s
    Bit rate                    : 0 b/s
    Count of elements           : 4
    Stream size                 : 73.0 Bytes (0%)
    Title                       : Forzados-SRT [CinemaniaHDD]
    Language                    : Spanish
    Default                     : Yes
    Forced                      : No

    Text #2
    ID                          : 5
    Format                      : UTF-8
    Codec ID                    : S_TEXT/UTF8
    Codec ID/Info               : UTF-8 Plain Text
    Duration                    : 1 h 48 min
    Bit rate                    : 56 b/s
    Count of elements           : 1463
    Stream size                 : 44.5 KiB (0%)
    Title                       : Español-SRT [CinemaniaHDD]
    Language                    : Spanish
    Default                     : No
    Forced                      : No

    Text #3
    ID                          : 6
    Format                      : UTF-8
    Codec ID                    : S_TEXT/UTF8
    Codec ID/Info               : UTF-8 Plain Text
    Duration                    : 1 h 48 min
    Bit rate                    : 53 b/s
    Count of elements           : 1586
    Stream size                 : 42.5 KiB (0%)
    Title                       : Ingles-SRT [CinemaniaHDD]
    Language                    : Spanish
    Default                     : No
    Forced                      : No

    Menu
    00:00:00.000                : en:Studio Logos
    00:00:30.000                : en:Harley Quinn's backstory
    00:01:56.000                : en:Trying to get her life together
    00:05:43.000                : en:A chance to be a new woman
    00:07:59.000                : en:Title Sequence
    00:08:07.000                : en:Meet the cop
    00:10:44.000                : en:Roman Sionis aka Black Mask
    00:12:41.000                : en:Life without immunity
    00:17:52.000                : en:Montoya makes her case to the Captain
    00:21:37.000                : en:Ambush at the station
    00:23:55.000                : en:The Black Canary
    00:33:39.000                : en:Caught in the cross-hairs
    00:38:01.000                : en:An unexpected complication
    00:40:15.000                : en:An offer to help Sionis
    00:46:29.000                : en:Breaking Cass out of prison
    00:53:43.000                : en:Harley and Cass bond
    01:01:14.000                : en:The Huntress
    01:04:24.000                : en:Roman is losing it
    01:06:53.000                : en:Things get worse for Montoya
    01:08:09.000                : en:The cost of business
    01:14:07.000                : en:Meeting at the amusement park
    01:23:50.000                : en:Girl power
    01:29:53.000                : en:Black Canary has to sing
    01:31:25.000                : en:There is power in fear
    01:37:34.000                : en:The emancipation of everyone
    01:41:24.000                : en:End Credits

  • Peso: 7.71 GiB

Sinopsis

Descargar Birds Of Prey (2020) AMZN Web-DL 1080p Latino. Después de separarse de Joker, Harley Quinn y otras tres heroínas (Canario Negro, Cazadora y Renée Montoya) unen sus fuerzas para salvar a una niña (Cassandra Cain) del malvado rey del crimen Máscara Negra.

Audio Español Latino AC3 2.0 Itunes – Ingles EAC3 5.1 AMZN

Ficha técnica

  • Titulo original: Birds of Prey (and the Fantabulous Emancipation of One Harley Quinn)
  • Fecha de lanzamiento: 05-02-2020 (United States of America)
  • Director: Cathy Yan, Gabriele Ferni
  • Género: Acción, Comedia, Crimen

Video trailer de la película

Enlaces de descarga

Rip de Bluray

Descargar Birds Of Prey (2020) AMZN Web-DL 1080p Latino




Aportes de DPeliculasHDmega la pass es:dpeliculashdmega.org Aportes de CinemaniaHD la pass es:cinemaniahdd.com
Guardado en : Acción , Comedia , Crimen

Películas relacionadas

  • Borrego: Sal Del Camino (2022) HD 1080p Latino

    Borrego: Sal Del Camino (2022) HD 1080p Latino

    2022
    Borrego: Sal Del Camino (2022) HD 1080p Latino

    1h 42m 2022

    Descargar Borrego: Sal Del Camino (2022) HD 1080p Latino. Una joven botánica se traslada a un pequeño...

    Director: Jesse Harris

    Género: Crimen

    Actores: Olivia Trujillo

  • Borrego: Sal Del Camino (2022) REMUX 1080p Latino

    Borrego: Sal Del Camino (2022) REMUX 1080p Latino

    2022
    Borrego: Sal Del Camino (2022) REMUX 1080p Latino

    1h 42m 2022

    Descargar Borrego: Sal Del Camino (2022) REMUX 1080p Latino. Una joven botánica se traslada a un pequeño...

    Director: Jesse Harris

    Género: Crimen

    Actores: Olivia Trujillo

  • Tren Bala (2022) WEB-DL 4K UHD HDR Latino

    Tren Bala (2022) WEB-DL 4K UHD HDR Latino

    2022
    Tren Bala (2022) WEB-DL 4K UHD HDR Latino

    2h 7m 2022

    Descargar Tren Bala (2022) WEB-DL 4K UHD HDR Latino. El desafortunado asesino "Catarina" está decidido...

    Director: Paul Barry

    Género: 4K HDR

    Actores: Zooey Miyoshi

descargar Birds Of Prey (2020) AMZN Web-DL 1080p Latino WEBDL 1080p gratis, Birds Of Prey (2020) AMZN Web-DL 1080p Latino WEBDL mega 1 link, Birds Of Prey (2020) AMZN Web-DL 1080p Latino WEBDL pelicula completa, descargar Birds Of Prey (2020) AMZN Web-DL 1080p Latino WEBDL gratis en mega.

Birds Of Prey (2020) AMZN Web-DL 1080p Latino pelicula full hd, Birds Of Prey (2020) AMZN Web-DL 1080p Latino mega latino, Birds Of Prey (2020) AMZN Web-DL 1080p Latino 4k latino, Birds Of Prey (2020) AMZN Web-DL 1080p Latino pelicula completa, Birds Of Prey (2020) AMZN Web-DL 1080p Latino descargar gratis, descargar Birds Of Prey (2020) AMZN Web-DL 1080p Latino pelicula latino, Birds Of Prey (2020) AMZN Web-DL 1080p Latino 1 link mega, Birds Of Prey (2020) AMZN Web-DL 1080p Latino 1 link google drive, Birds Of Prey (2020) AMZN Web-DL 1080p Latino hd 1080p latino.
Comentarios 0