×

¿Problemas para descargar con Mozilla, EDGE? Deshabilita la opción "Abrir vinculos en una pestaña nueva" tal como lo muestra ésta imagen.

Birdman (2014) REMUX 1080p Latino – CMHDD

295 vistas

Información de Birdman (2014) REMUX 1080p Latino – CMHDD

Datos de la película

  • Calidad: Full 1080p
  • Audio: Español Latino AC3 5.1 BLURAY - Ingles DTS 5.1 BLURAY
  • Subtitulos: Español Latino PGS
  • Resolución: 1920x1080p
  • Formato: MKV
  • Codec: H.264
  • Encoder: Dracarys
  • Mediainfo: Clic para Mostrar Datos Ver
  • Format                      : Matroska
    Format version              : Version 4
    File size                   : 31.7 GiB
    Duration                    : 1 h 59 min
    Overall bit rate mode       : Variable
    Overall bit rate            : 38.1 Mb/s
    Movie name                  : Birdman or (The Unexpected Virtue of Ignorance) (2014) REMUX 1080p Latino - CMHDD
    Encoded date                : UTC 2022-01-30 18:46:40
    Writing application         : mkvmerge v17.0.0 ('Be Ur Friend') 64-bit
    Writing library             : libebml v1.3.5 + libmatroska v1.4.8

    Video
    ID                          : 1
    Format                      : AVC
    Format/Info                 : Advanced Video Codec
    Format profile              : High@L4.1
    Format settings             : CABAC / 4 Ref Frames
    Format settings, CABAC      : Yes
    Format settings, Reference  : 4 frames
    Codec ID                    : V_MPEG4/ISO/AVC
    Duration                    : 1 h 59 min
    Bit rate mode               : Variable
    Bit rate                    : 33.8 Mb/s
    Maximum bit rate            : 36.4 Mb/s
    Width                       : 1 920 pixels
    Height                      : 1 080 pixels
    Display aspect ratio        : 16:9
    Frame rate mode             : Constant
    Frame rate                  : 23.976 (24000/1001) FPS
    Color space                 : YUV
    Chroma subsampling          : 4:2:0
    Bit depth                   : 8 bits
    Scan type                   : Progressive
    Bits/(Pixel*Frame)          : 0.681
    Stream size                 : 28.2 GiB (89%)
    Default                     : Yes
    Forced                      : No

    Audio #1
    ID                          : 2
    Format                      : DTS XLL
    Format/Info                 : Digital Theater Systems
    Commercial name             : DTS-HD Master Audio
    Codec ID                    : A_DTS
    Duration                    : 1 h 59 min
    Bit rate mode               : Variable
    Bit rate                    : 3 770 kb/s
    Channel(s)                  : 6 channels
    Channel layout              : C L R Ls Rs LFE
    Sampling rate               : 48.0 kHz
    Frame rate                  : 93.750 FPS (512 SPF)
    Bit depth                   : 24 bits
    Compression mode            : Lossless
    Stream size                 : 3.14 GiB (10%)
    Language                    : English
    Default                     : No
    Forced                      : No

    Audio #2
    ID                          : 3
    Format                      : AC-3
    Format/Info                 : Audio Coding 3
    Commercial name             : Dolby Digital
    Codec ID                    : A_AC3
    Duration                    : 1 h 59 min
    Bit rate mode               : Constant
    Bit rate                    : 448 kb/s
    Channel(s)                  : 6 channels
    Channel layout              : L R C LFE Ls Rs
    Sampling rate               : 48.0 kHz
    Frame rate                  : 31.250 FPS (1536 SPF)
    Compression mode            : Lossy
    Stream size                 : 382 MiB (1%)
    Language                    : Spanish
    Service kind                : Complete Main
    Default                     : Yes
    Forced                      : No

    Text
    ID                          : 4
    Format                      : PGS
    Muxing mode                 : zlib
    Codec ID                    : S_HDMV/PGS
    Codec ID/Info               : Picture based subtitle format used on BDs/HD-DVDs
    Duration                    : 1 h 58 min
    Bit rate                    : 35.1 kb/s
    Count of elements           : 3041
    Stream size                 : 29.7 MiB (0%)
    Language                    : Spanish
    Default                     : No
    Forced                      : No

    Menu
    00:00:00.000                : en:Chapter 1
    00:03:29.083                : en:Chapter 2
    00:07:33.828                : en:Chapter 3
    00:09:08.506                : en:Chapter 4
    00:12:39.383                : en:Chapter 5
    00:16:53.429                : en:Chapter 6
    00:19:07.146                : en:Chapter 7
    00:20:22.095                : en:Chapter 8
    00:25:21.186                : en:Chapter 9
    00:31:45.028                : en:Chapter 10
    00:36:09.834                : en:Chapter 11
    00:37:12.772                : en:Chapter 12
    00:42:09.443                : en:Chapter 13
    00:48:49.801                : en:Chapter 14
    00:53:30.540                : en:Chapter 15
    00:58:31.341                : en:Chapter 16
    01:03:17.084                : en:Chapter 17
    01:08:29.146                : en:Chapter 18
    01:12:42.566                : en:Chapter 19
    01:17:01.450                : en:Chapter 20
    01:20:45.090                : en:Chapter 21
    01:25:13.983                : en:Chapter 22
    01:28:04.946                : en:Chapter 23
    01:33:22.471                : en:Chapter 24
    01:39:14.949                : en:Chapter 25
    01:43:10.726                : en:Chapter 26
    01:46:43.855                : en:Chapter 27
    01:52:16.855                : en:Chapter 28

  • Peso: 31.7 GiB

Sinopsis

Después de hacerse famoso interpretando a un célebre superhéroe, un actor trata de darle un nuevo rumbo a su vida, recuperando a su familia y preparándose para el estreno de una obra teatral en Broadway.

Ficha técnica

Video trailer de la película

Enlaces de descarga

Rip de Bluray

Descargar Birdman (2014) REMUX 1080p Latino – CMHDD


Aportes de DPeliculasHDmega la pass es:dpeliculashdmega.org Aportes de CinemaniaHD la pass es:cinemaniahdd.com
Guardado en : Comedia , Drama

Películas relacionadas

  • Men in Black (1997) REMUX 4K HDR Latino – CMHDD

    Men in Black (1997) REMUX 4K HDR Latino – CMHDD

    1997
    Men in Black (1997) REMUX 4K HDR Latino – CMHDD

    1h 34m 1997

    Durante muchos años los extraterrestres han vivido en la Tierra, mezclados con los humanos, sin que...

    Director: Tyrone S. Walker

    Género: Acción

    Actores: Willie C. Carpenter

  • Blonde (2022) NF WEB-DL 1080p Latino

    Blonde (2022) NF WEB-DL 1080p Latino

    2022
    Blonde (2022) NF WEB-DL 1080p Latino

    2h 46m 2022

    Descargar Blonde (2022) NF WEB-DL 1080p Latino. Basada en el bestseller de la cinco veces finalista al...

    Director: Kristin Bree Calabrese

    Género: Drama

    Actores: Xavier Samuel

  • Tren Bala (2022) WEB-DL 4K UHD HDR Latino

    Tren Bala (2022) WEB-DL 4K UHD HDR Latino

    2022
    Tren Bala (2022) WEB-DL 4K UHD HDR Latino

    2h 7m 2022

    Descargar Tren Bala (2022) WEB-DL 4K UHD HDR Latino. El desafortunado asesino "Catarina" está decidido...

    Director: Paul Barry

    Género: 4K HDR

    Actores: Zooey Miyoshi

  • Tren Bala (2022) AMZN WEB-DL 1080p Latino

    Tren Bala (2022) AMZN WEB-DL 1080p Latino

    2022
    Tren Bala (2022) AMZN WEB-DL 1080p Latino

    2h 7m 2022

    Descargar Tren Bala (2022) AMZN WEB-DL 1080p Latino. Cinco asesinos a sueldo se encuentran a bordo de...

    Director: Paul Barry

    Género: Acción

    Actores: Zooey Miyoshi

descargar Birdman (2014) REMUX 1080p Latino – CMHDD Full 1080p 1080p gratis, Birdman (2014) REMUX 1080p Latino – CMHDD Full 1080p mega 1 link, Birdman (2014) REMUX 1080p Latino – CMHDD Full 1080p pelicula completa, descargar Birdman (2014) REMUX 1080p Latino – CMHDD Full 1080p gratis en mega.

Birdman (2014) REMUX 1080p Latino – CMHDD pelicula full hd, Birdman (2014) REMUX 1080p Latino – CMHDD mega latino, Birdman (2014) REMUX 1080p Latino – CMHDD 4k latino, Birdman (2014) REMUX 1080p Latino – CMHDD pelicula completa, Birdman (2014) REMUX 1080p Latino – CMHDD descargar gratis, descargar Birdman (2014) REMUX 1080p Latino – CMHDD pelicula latino, Birdman (2014) REMUX 1080p Latino – CMHDD 1 link mega, Birdman (2014) REMUX 1080p Latino – CMHDD 1 link google drive, Birdman (2014) REMUX 1080p Latino – CMHDD hd 1080p latino.
Comentarios 0