×

¿Problemas para descargar con Mozilla, EDGE? Deshabilita la opción "Abrir vinculos en una pestaña nueva" tal como lo muestra ésta imagen.

Billions (2022) Sexta Temporada AMZN WEB-DL 1080p Latino

275 vistas

Información de Billions (2022) Sexta Temporada AMZN WEB-DL 1080p Latino

Datos de la película

  • Calidad: 1080p
  • Audio: Español Latino AC3 2.0 WEB-DL - Ingles AC3 5.1 WEB-DL
  • Subtitulos: Español Latino SRT- FORZADOS SRT
  • Resolución: 1920x1080
  • Formato: MKV
  • Codec: H.264
  • Encoder: cinemaniahdd
  • Mediainfo: Clic para Mostrar Datos Ver
  • Billions T06E01 AMZN WEB-DL 1080p Latino [CNMNHDD].mkv
    Format                      : Matroska
    Format version              : Version 4
    File size                   : 2.70 GiB
    Duration                    : 52 min 42 s
    Overall bit rate            : 7 342 kb/s
    Movie name                  : Billions S06E01 - Cannonade [1080p] - CinemaniaHDD.Net
    Encoded date                : UTC 2023-09-13 00:13:17
    Writing application         : mkvmerge v56.1.0 ('My Friend') 64-bit
    Writing library             : libebml v1.4.2 + libmatroska v1.6.4

    Video
    ID                          : 1
    Format                      : AVC
    Format/Info                 : Advanced Video Codec
    Format profile              : High@L4
    Format settings             : CABAC / 4 Ref Frames
    Format settings, CABAC      : Yes
    Format settings, Reference  : 4 frames
    Codec ID                    : V_MPEG4/ISO/AVC
    Duration                    : 52 min 42 s
    Bit rate mode               : Constant
    Bit rate                    : 6 315 kb/s
    Nominal bit rate            : 10 000 kb/s
    Width                       : 1 920 pixels
    Height                      : 1 080 pixels
    Display aspect ratio        : 16:9
    Frame rate mode             : Constant
    Frame rate                  : 23.976 (24000/1001) FPS
    Color space                 : YUV
    Chroma subsampling          : 4:2:0
    Bit depth                   : 8 bits
    Scan type                   : Progressive
    Bits/(Pixel*Frame)          : 0.127
    Stream size                 : 2.32 GiB (86%)
    Title                       : CinemaniaHDD
    Default                     : Yes
    Forced                      : No
    Color range                 : Limited
    Color primaries             : BT.709
    Transfer characteristics    : BT.709
    Matrix coefficients         : BT.709

    Audio #1
    ID                          : 2
    Format                      : AC-3
    Format/Info                 : Audio Coding 3
    Commercial name             : Dolby Digital
    Codec ID                    : A_AC3
    Duration                    : 52 min 42 s
    Bit rate mode               : Constant
    Bit rate                    : 384 kb/s
    Channel(s)                  : 2 channels
    Channel layout              : L R
    Sampling rate               : 48.0 kHz
    Frame rate                  : 31.250 FPS (1536 SPF)
    Compression mode            : Lossy
    Stream size                 : 145 MiB (5%)
    Title                       : Español Latino [CinemaniaHDD]
    Language                    : Spanish
    Service kind                : Complete Main
    Default                     : Yes
    Forced                      : No

    Audio #2
    ID                          : 3
    Format                      : E-AC-3
    Format/Info                 : Enhanced AC-3
    Commercial name             : Dolby Digital Plus
    Codec ID                    : A_EAC3
    Duration                    : 52 min 42 s
    Bit rate mode               : Constant
    Bit rate                    : 640 kb/s
    Channel(s)                  : 6 channels
    Channel layout              : L R C LFE Ls Rs
    Sampling rate               : 48.0 kHz
    Frame rate                  : 31.250 FPS (1536 SPF)
    Compression mode            : Lossy
    Delay relative to video     : 18 ms
    Stream size                 : 241 MiB (9%)
    Title                       : Inglés [CinemaniaHDD]
    Language                    : English
    Service kind                : Complete Main
    Default                     : No
    Forced                      : No

    Text #1
    ID                          : 4
    Format                      : UTF-8
    Codec ID                    : S_TEXT/UTF8
    Codec ID/Info               : UTF-8 Plain Text
    Duration                    : 21 min 35 s
    Bit rate                    : 0 b/s
    Count of elements           : 3
    Stream size                 : 75.0 Bytes (0%)
    Title                       : Forzados [CinemaniaHDD]
    Language                    : Spanish
    Default                     : Yes
    Forced                      : Yes

    Text #2
    ID                          : 5
    Format                      : UTF-8
    Codec ID                    : S_TEXT/UTF8
    Codec ID/Info               : UTF-8 Plain Text
    Duration                    : 51 min 3 s
    Bit rate                    : 152 b/s
    Count of elements           : 1489
    Stream size                 : 56.9 KiB (0%)
    Title                       : Español Latino [CinemaniaHDD]
    Language                    : Spanish
    Default                     : No
    Forced                      : No

    Text #3
    ID                          : 6
    Format                      : UTF-8
    Codec ID                    : S_TEXT/UTF8
    Codec ID/Info               : UTF-8 Plain Text
    Duration                    : 52 min 37 s
    Bit rate                    : 158 b/s
    Count of elements           : 1205
    Stream size                 : 61.2 KiB (0%)
    Title                       : Inglés [CinemaniaHDD]
    Language                    : English
    Default                     : No
    Forced                      : No

     

  • Peso: 2.70 GiB Aprox ---- 30 GiB in 12 Chapters.

Sinopsis

El dinero nuevo no significa piedad cuando Mike Prince toma el trono de Axe Capital. Mientras tanto, Chuck Rhoades está convencido de que nadie debería tener tanta riqueza o poder. Mientras todos los jugadores buscan nuevas alianzas, sólo una cosa es segura… la riqueza significa guerra.

Ficha técnica

Video trailer de la película

Enlaces de descarga

Rip de Bluray

Descargar Billions (2022) Sexta Temporada AMZN WEB-DL 1080p Latino




Aportes de DPeliculasHDmega la pass es:dpeliculashdmega.org Aportes de CinemaniaHD la pass es:cinemaniahdd.com Aportes recientes:cinemaniahdd.net
Guardado en : Drama , Series

Películas relacionadas

descargar Billions (2022) Sexta Temporada AMZN WEB-DL 1080p Latino 1080p 1080p gratis, Billions (2022) Sexta Temporada AMZN WEB-DL 1080p Latino 1080p mega 1 link, Billions (2022) Sexta Temporada AMZN WEB-DL 1080p Latino 1080p serie completa, descargar Billions (2022) Sexta Temporada AMZN WEB-DL 1080p Latino 1080p gratis en mega.

Billions (2022) Sexta Temporada AMZN WEB-DL 1080p Latino pelicula full hd, Billions (2022) Sexta Temporada AMZN WEB-DL 1080p Latino mega latino, Billions (2022) Sexta Temporada AMZN WEB-DL 1080p Latino 4k latino, Billions (2022) Sexta Temporada AMZN WEB-DL 1080p Latino pelicula completa, Billions (2022) Sexta Temporada AMZN WEB-DL 1080p Latino descargar gratis, descargar Billions (2022) Sexta Temporada AMZN WEB-DL 1080p Latino pelicula latino, Billions (2022) Sexta Temporada AMZN WEB-DL 1080p Latino 1 link mega, Billions (2022) Sexta Temporada AMZN WEB-DL 1080p Latino 1 link google drive, Billions (2022) Sexta Temporada AMZN WEB-DL 1080p Latino hd 1080p latino.
Comentarios 0