×

¿Problemas para descargar con Mozilla, EDGE? Deshabilita la opción "Abrir vinculos en una pestaña nueva" tal como lo muestra ésta imagen.

Billions (2016-2021) Temporadas [1-5] SHOWTIME WEB-DL 1080p Latino

3.801 vistas

Información de Billions (2016-2021) Temporadas [1-5] SHOWTIME WEB-DL 1080p Latino

Datos de la película

  • Calidad: 1080p
  • Audio: Español Latino AC3 5.1 WEB-DL - Ingles AC3 5.1 WEB-DL
  • Subtitulos: Español Latino SRT- FORZADOS SRT
  • Resolución: 1920x1080
  • Formato: MKV
  • Codec: H.264
  • Encoder: cinemaniahdd
  • Mediainfo: Clic para Mostrar Datos Ver
  • Billions T05E12 SHOWTIME WEB-DL 1080p Latino [CNMNHDD].mkv
    Format                      : Matroska
    Format version              : Version 4
    File size                   : 2.40 GiB
    Duration                    : 1 h 0 min
    Overall bit rate mode       : Variable
    Overall bit rate            : 5 688 kb/s
    Movie name                  : Billions S05E12 - No Direction Home [1080p] - CinemaniaHDD.Net
    Encoded date                : UTC 2023-09-11 05:44:09
    Writing application         : mkvmerge v59.0.0 ('Shining Star') 64-bit
    Writing library             : libebml v1.4.2 + libmatroska v1.6.4

    Video
    ID                          : 1
    Format                      : AVC
    Format/Info                 : Advanced Video Codec
    Format profile              : Main@L4
    Format settings             : CABAC / 3 Ref Frames
    Format settings, CABAC      : Yes
    Format settings, Reference  : 3 frames
    Codec ID                    : V_MPEG4/ISO/AVC
    Duration                    : 1 h 0 min
    Bit rate mode               : Variable
    Bit rate                    : 6 041 kb/s
    Width                       : 1 920 pixels
    Height                      : 1 080 pixels
    Display aspect ratio        : 16:9
    Frame rate mode             : Constant
    Frame rate                  : 23.976 (24000/1001) FPS
    Color space                 : YUV
    Chroma subsampling          : 4:2:0
    Bit depth                   : 8 bits
    Scan type                   : Progressive
    Bits/(Pixel*Frame)          : 0.122
    Stream size                 : 2.52 GiB (89%)
    Title                       : CinemaniaHDD
    Default                     : Yes
    Forced                      : No

    Audio #1
    ID                          : 2
    Format                      : AC-3
    Format/Info                 : Audio Coding 3
    Commercial name             : Dolby Digital
    Codec ID                    : A_AC3
    Duration                    : 1 h 0 min
    Bit rate mode               : Constant
    Bit rate                    : 384 kb/s
    Channel(s)                  : 6 channels
    Channel layout              : L R C LFE Ls Rs
    Sampling rate               : 48.0 kHz
    Frame rate                  : 31.250 FPS (1536 SPF)
    Compression mode            : Lossy
    Stream size                 : 166 MiB (7%)
    Title                       : Español Latino [CinemaniaHDD]
    Language                    : Spanish
    Service kind                : Complete Main
    Default                     : Yes
    Forced                      : No

    Audio #2
    ID                          : 3
    Format                      : AC-3
    Format/Info                 : Audio Coding 3
    Commercial name             : Dolby Digital
    Codec ID                    : A_AC3
    Duration                    : 1 h 0 min
    Bit rate mode               : Constant
    Bit rate                    : 384 kb/s
    Channel(s)                  : 6 channels
    Channel layout              : L R C LFE Ls Rs
    Sampling rate               : 48.0 kHz
    Frame rate                  : 31.250 FPS (1536 SPF)
    Compression mode            : Lossy
    Stream size                 : 166 MiB (7%)
    Title                       : Inglés [CinemaniaHDD]
    Language                    : English
    Service kind                : Complete Main
    Default                     : No
    Forced                      : No

    Text #1
    ID                          : 4
    Format                      : UTF-8
    Codec ID                    : S_TEXT/UTF8
    Codec ID/Info               : UTF-8 Plain Text
    Duration                    : 59 min 26 s
    Bit rate                    : 0 b/s
    Count of elements           : 4
    Stream size                 : 129 Bytes (0%)
    Title                       : Forzados [CinemaniaHDD]
    Language                    : Spanish
    Default                     : Yes
    Forced                      : Yes

    Text #2
    ID                          : 5
    Format                      : UTF-8
    Codec ID                    : S_TEXT/UTF8
    Codec ID/Info               : UTF-8 Plain Text
    Duration                    : 59 min 53 s
    Bit rate                    : 80 b/s
    Count of elements           : 892
    Stream size                 : 35.2 KiB (0%)
    Title                       : Español Latino [CinemaniaHDD]
    Language                    : Spanish
    Default                     : No
    Forced                      : No

    Text #3
    ID                          : 6
    Format                      : UTF-8
    Codec ID                    : S_TEXT/UTF8
    Codec ID/Info               : UTF-8 Plain Text
    Duration                    : 59 min 55 s
    Bit rate                    : 83 b/s
    Count of elements           : 1147
    Stream size                 : 36.6 KiB (0%)
    Title                       : Inglés [CinemaniaHDD]
    Language                    : English
    Default                     : No
    Forced                      : No

     

  • Peso: 2.40 GiB Aprox ---- 138 GiB in 60 Chapters.

Sinopsis

Billions es un drama que examina con mirada forense el mundo de las altas finanzas mediante el seguimiento de la colisión que se avecina entre dos figuras titánicas de gran poder. Estos personajes son: el Fiscal Federal Chuck Rhoades (Paul Giamatti) y el ambicioso rey de los fondos de cobertura, Bobby ‘Axe’ Axelrod (Demian Lewis). Cada uno tendrá que usar su inteligencia, poder e influencia para poder superar al otro en esta constante lucha por acabar con el otro. Así, la serie explora la estrecha y oscura relación entre el poder y la política en el mundo de las altas finanzas de Nueva York. Tal y como señala el nombre de la serie, en esta pugna están en juego enormes cantidades de dinero.

 

Ficha técnica

  • Titulo original: Billions
  • Fecha de lanzamiento: 17-02-2016 (Japan, United States of America)
  • Director: Brian Koppelman
  • Género: Drama, Series

Video trailer de la película

Enlaces de descarga

Rip de Bluray

Descargar Billions (2016-2021) Temporadas [1-5] SHOWTIME WEB-DL 1080p Latino




Aportes de DPeliculasHDmega la pass es:dpeliculashdmega.org Aportes de CinemaniaHD la pass es:cinemaniahdd.com Aportes recientes:cinemaniahdd.net
Guardado en : Drama , Series

Películas relacionadas

descargar Billions (2016-2021) Temporadas [1-5] SHOWTIME WEB-DL 1080p Latino 1080p 1080p gratis, Billions (2016-2021) Temporadas [1-5] SHOWTIME WEB-DL 1080p Latino 1080p mega 1 link, Billions (2016-2021) Temporadas [1-5] SHOWTIME WEB-DL 1080p Latino 1080p serie completa, descargar Billions (2016-2021) Temporadas [1-5] SHOWTIME WEB-DL 1080p Latino 1080p gratis en mega.

Billions (2016-2021) Temporadas [1-5] SHOWTIME WEB-DL 1080p Latino pelicula full hd, Billions (2016-2021) Temporadas [1-5] SHOWTIME WEB-DL 1080p Latino mega latino, Billions (2016-2021) Temporadas [1-5] SHOWTIME WEB-DL 1080p Latino 4k latino, Billions (2016-2021) Temporadas [1-5] SHOWTIME WEB-DL 1080p Latino pelicula completa, Billions (2016-2021) Temporadas [1-5] SHOWTIME WEB-DL 1080p Latino descargar gratis, descargar Billions (2016-2021) Temporadas [1-5] SHOWTIME WEB-DL 1080p Latino pelicula latino, Billions (2016-2021) Temporadas [1-5] SHOWTIME WEB-DL 1080p Latino 1 link mega, Billions (2016-2021) Temporadas [1-5] SHOWTIME WEB-DL 1080p Latino 1 link google drive, Billions (2016-2021) Temporadas [1-5] SHOWTIME WEB-DL 1080p Latino hd 1080p latino.
Comentarios 3