×

¿Problemas para descargar con Mozilla, EDGE? Deshabilita la opción "Abrir vinculos en una pestaña nueva" tal como lo muestra ésta imagen.

Bill & Ted’s Excellent Adventure (1989) REMUX 1080p Latino – CMHDD

329 vistas

Información de Bill & Ted’s Excellent Adventure (1989) REMUX 1080p Latino – CMHDD

Datos de la película

  • Calidad: Full 1080p
  • Audio: Español Latino AC3 1.0 BLURAY - Ingles DTS 5.1 BLURAY
  • Subtitulos: Español Latino SRT
  • Resolución: 1920x1080p
  • Formato: MKV
  • Codec: H.264
  • Encoder: Dracarys
  • Mediainfo: Clic para Mostrar Datos Ver
  • Format                      : Matroska
    Format version              : Version 4
    File size                   : 24.0 GiB
    Duration                    : 1 h 29 min
    Overall bit rate mode       : Variable
    Overall bit rate            : 38.2 Mb/s
    Movie name                  : Bill & Ted's Excellent Adventure (1989) REMUX 1080p Latino - CMHDD
    Encoded date                : UTC 2020-08-29 03:41:44
    Writing application         : mkvmerge v46.0.0 ('No Deeper Escape') 64-bit
    Writing library             : libebml v1.3.10 + libmatroska v1.5.2

    Video
    ID                          : 1
    ID in the original source m : 4113 (0x1011)
    Format                      : AVC
    Format/Info                 : Advanced Video Codec
    Format profile              : High@L4.1
    Format settings             : CABAC / 3 Ref Frames
    Format settings, CABAC      : Yes
    Format settings, Reference  : 3 frames
    Codec ID                    : V_MPEG4/ISO/AVC
    Duration                    : 1 h 29 min
    Bit rate mode               : Variable
    Bit rate                    : 33.9 Mb/s
    Maximum bit rate            : 36.0 Mb/s
    Width                       : 1 920 pixels
    Height                      : 1 080 pixels
    Display aspect ratio        : 16:9
    Frame rate mode             : Constant
    Frame rate                  : 24.000 FPS
    Color space                 : YUV
    Chroma subsampling          : 4:2:0
    Bit depth                   : 8 bits
    Scan type                   : Progressive
    Bits/(Pixel*Frame)          : 0.680
    Stream size                 : 21.2 GiB (89%)
    Language                    : English
    Default                     : No
    Forced                      : No
    Color range                 : Limited
    Color primaries             : BT.709
    Transfer characteristics    : BT.709
    Matrix coefficients         : BT.709
    Original source medium      : Blu-ray

    Audio #1
    ID                          : 2
    Format                      : AC-3
    Format/Info                 : Audio Coding 3
    Commercial name             : Dolby Digital
    Codec ID                    : A_AC3
    Duration                    : 1 h 29 min
    Bit rate mode               : Constant
    Bit rate                    : 192 kb/s
    Channel(s)                  : 1 channel
    Channel layout              : C
    Sampling rate               : 48.0 kHz
    Frame rate                  : 31.250 FPS (1536 SPF)
    Compression mode            : Lossy
    Delay relative to video     : 11 s 0 ms
    Stream size                 : 288 MiB (1%)
    Language                    : Spanish
    Service kind                : Complete Main
    Default                     : Yes
    Forced                      : No

    Audio #2
    ID                          : 3
    Format                      : DTS XLL
    Format/Info                 : Digital Theater Systems
    Commercial name             : DTS-HD Master Audio
    Codec ID                    : A_DTS
    Duration                    : 1 h 29 min
    Bit rate mode               : Variable
    Bit rate                    : 3 896 kb/s
    Channel(s)                  : 6 channels
    Channel layout              : C L R Ls Rs LFE
    Sampling rate               : 48.0 kHz
    Frame rate                  : 93.750 FPS (512 SPF)
    Bit depth                   : 24 bits
    Compression mode            : Lossless
    Stream size                 : 2.45 GiB (10%)
    Language                    : English
    Default                     : No
    Forced                      : No

    Text
    ID                          : 4
    Format                      : UTF-8
    Codec ID                    : S_TEXT/UTF8
    Codec ID/Info               : UTF-8 Plain Text
    Duration                    : 1 h 25 min
    Bit rate                    : 48 b/s
    Count of elements           : 924
    Stream size                 : 30.4 KiB (0%)
    Language                    : Spanish
    Default                     : No
    Forced                      : No

    Menu
    00:00:00.000                : en:Chapter 01
    00:04:53.375                : en:Chapter 02
    00:09:44.791                : en:Chapter 03
    00:16:42.375                : en:Chapter 04
    00:23:50.583                : en:Chapter 05
    00:30:54.125                : en:Chapter 06
    00:41:29.916                : en:Chapter 07
    00:52:26.166                : en:Chapter 08
    00:59:11.333                : en:Chapter 09
    01:07:24.875                : en:Chapter 10
    01:13:40.166                : en:Chapter 11
    01:21:26.166                : en:Chapter 12

  • Peso: 24.0 GiB

Sinopsis

Bill y Ted, de diecisiete años, amigos inseparables y miembros de una banda de rock, sienten más interés por la música que por sus estudios. El día de su graduación está cerca y deben aprobar como sea el examen de Historia. Las cosas están difíciles para los chicos, sin embargo, la aparición de un personaje inesperado va a serles de crucial ayuda. Se trata de Rufus, un emisario del futuro, que les ofrece un alucinante viaje en el tiempo para conocer a algunos de los más importantes personajes de la historia.

Ficha técnica

Video trailer de la película

Enlaces de descarga

Rip de Bluray

Descargar Bill & Ted’s Excellent Adventure (1989) REMUX 1080p Latino – CMHDD


Aportes de DPeliculasHDmega la pass es:dpeliculashdmega.org Aportes de CinemaniaHD la pass es:cinemaniahdd.com
Guardado en : Aventura , Ciencia ficción , Comedia

Películas relacionadas

descargar Bill & Ted’s Excellent Adventure (1989) REMUX 1080p Latino – CMHDD Full 1080p 1080p gratis, Bill & Ted’s Excellent Adventure (1989) REMUX 1080p Latino – CMHDD Full 1080p mega 1 link, Bill & Ted’s Excellent Adventure (1989) REMUX 1080p Latino – CMHDD Full 1080p pelicula completa, descargar Bill & Ted’s Excellent Adventure (1989) REMUX 1080p Latino – CMHDD Full 1080p gratis en mega.

Bill & Ted’s Excellent Adventure (1989) REMUX 1080p Latino – CMHDD pelicula full hd, Bill & Ted’s Excellent Adventure (1989) REMUX 1080p Latino – CMHDD mega latino, Bill & Ted’s Excellent Adventure (1989) REMUX 1080p Latino – CMHDD 4k latino, Bill & Ted’s Excellent Adventure (1989) REMUX 1080p Latino – CMHDD pelicula completa, Bill & Ted’s Excellent Adventure (1989) REMUX 1080p Latino – CMHDD descargar gratis, descargar Bill & Ted’s Excellent Adventure (1989) REMUX 1080p Latino – CMHDD pelicula latino, Bill & Ted’s Excellent Adventure (1989) REMUX 1080p Latino – CMHDD 1 link mega, Bill & Ted’s Excellent Adventure (1989) REMUX 1080p Latino – CMHDD 1 link google drive, Bill & Ted’s Excellent Adventure (1989) REMUX 1080p Latino – CMHDD hd 1080p latino.
Comentarios 0