×

¿Problemas para descargar con Mozilla, EDGE? Deshabilita la opción "Abrir vinculos en una pestaña nueva" tal como lo muestra ésta imagen.

Bill & Ted’s Excellent Adventure (1989) Full HD 1080p Latino – CMHDD

418 vistas

Información de Bill & Ted’s Excellent Adventure (1989) Full HD 1080p Latino – CMHDD

Datos de la película

  • Calidad: Full 1080p
  • Audio: Español Latino AC3 1.0 BLURAY - Ingles DTS 5.1 BLURAY
  • Subtitulos: Español Latino SRT
  • Resolución: 1920x1080p
  • Formato: MKV
  • Codec: H.264
  • Encoder: Dracarys
  • Mediainfo: Clic para Mostrar Datos Ver
  • Format                      : Matroska
    Format version              : Version 4
    File size                   : 12.4 GiB
    Duration                    : 1 h 29 min
    Overall bit rate mode       : Variable
    Overall bit rate            : 19.7 Mb/s
    Movie name                  : Bill & Ted's Excellent Adventure (1989) Full HD 1080p Latino - CMHDD
    Encoded date                : UTC 2020-08-29 03:35:48
    Writing application         : mkvmerge v46.0.0 ('No Deeper Escape') 64-bit
    Writing library             : libebml v1.3.10 + libmatroska v1.5.2

    Video
    ID                          : 1
    Format                      : AVC
    Format/Info                 : Advanced Video Codec
    Format profile              : High@L4.1
    Format settings             : CABAC / 4 Ref Frames
    Format settings, CABAC      : Yes
    Format settings, Reference  : 4 frames
    Codec ID                    : V_MPEG4/ISO/AVC
    Duration                    : 1 h 29 min
    Bit rate                    : 15.3 Mb/s
    Width                       : 1 920 pixels
    Height                      : 1 080 pixels
    Display aspect ratio        : 16:9
    Frame rate mode             : Constant
    Frame rate                  : 24.000 FPS
    Color space                 : YUV
    Chroma subsampling          : 4:2:0
    Bit depth                   : 8 bits
    Scan type                   : Progressive
    Bits/(Pixel*Frame)          : 0.308
    Stream size                 : 9.62 GiB (78%)
    Writing library             : x264 core 157 r2935 545de2f
    Encoding settings           : cabac=1 / ref=4 / deblock=1:0:0 / analyse=0x3:0x133 / me=tesa / subme=11 / psy=1 / psy_rd=1.00:0.00 / mixed_ref=1 / me_range=24 / chroma_me=1 / trellis=2 / 8x8dct=1 / cqm=0 / deadzone=21,11 / fast_pskip=0 / chroma_qp_offset=-2 / threads=24 / lookahead_threads=6 / sliced_threads=0 / nr=0 / decimate=1 / interlaced=0 / bluray_compat=0 / constrained_intra=0 / bframes=16 / b_pyramid=2 / b_adapt=2 / b_bias=0 / direct=3 / weightb=1 / open_gop=0 / weightp=2 / keyint=240 / keyint_min=24 / scenecut=40 / intra_refresh=0 / rc_lookahead=60 / rc=crf / mbtree=1 / crf=20.0 / qcomp=0.60 / qpmin=0 / qpmax=69 / qpstep=4 / vbv_maxrate=62500 / vbv_bufsize=78125 / crf_max=0.0 / nal_hrd=none / filler=0 / ip_ratio=1.40 / aq=1:1.00
    Default                     : Yes
    Forced                      : No
    Color range                 : Limited
    Color primaries             : BT.709
    Transfer characteristics    : BT.709
    Matrix coefficients         : BT.709

    Audio #1
    ID                          : 2
    Format                      : AC-3
    Format/Info                 : Audio Coding 3
    Commercial name             : Dolby Digital
    Codec ID                    : A_AC3
    Duration                    : 1 h 29 min
    Bit rate mode               : Constant
    Bit rate                    : 192 kb/s
    Channel(s)                  : 1 channel
    Channel layout              : C
    Sampling rate               : 48.0 kHz
    Frame rate                  : 31.250 FPS (1536 SPF)
    Compression mode            : Lossy
    Delay relative to video     : 11 s 0 ms
    Stream size                 : 288 MiB (2%)
    Language                    : Spanish
    Service kind                : Complete Main
    Default                     : Yes
    Forced                      : No

    Audio #2
    ID                          : 3
    Format                      : DTS XLL
    Format/Info                 : Digital Theater Systems
    Commercial name             : DTS-HD Master Audio
    Codec ID                    : A_DTS
    Duration                    : 1 h 29 min
    Bit rate mode               : Variable
    Bit rate                    : 3 896 kb/s
    Channel(s)                  : 6 channels
    Channel layout              : C L R Ls Rs LFE
    Sampling rate               : 48.0 kHz
    Frame rate                  : 93.750 FPS (512 SPF)
    Bit depth                   : 24 bits
    Compression mode            : Lossless
    Stream size                 : 2.45 GiB (20%)
    Language                    : English
    Default                     : No
    Forced                      : No

    Text
    ID                          : 4
    Format                      : UTF-8
    Codec ID                    : S_TEXT/UTF8
    Codec ID/Info               : UTF-8 Plain Text
    Duration                    : 1 h 25 min
    Bit rate                    : 48 b/s
    Count of elements           : 924
    Stream size                 : 30.4 KiB (0%)
    Language                    : Spanish
    Default                     : No
    Forced                      : No

    Menu
    00:00:00.000                : :Chapter 1
    00:04:53.375                : :Chapter 2
    00:09:44.792                : :Chapter 3
    00:16:42.375                : :Chapter 4
    00:23:50.750                : :Chapter 5
    00:30:54.125                : :Chapter 6
    00:41:29.917                : :Chapter 7
    00:52:26.167                : :Chapter 8
    00:59:11.458                : :Chapter 9
    01:07:24.875                : :Chapter 10
    01:13:40.167                : :Chapter 11
    01:21:26.167                : :Chapter 12

  • Peso: 12.4 GiB

Sinopsis

Bill y Ted, de diecisiete años, amigos inseparables y miembros de una banda de rock, sienten más interés por la música que por sus estudios. El día de su graduación está cerca y deben aprobar como sea el examen de Historia. Las cosas están difíciles para los chicos, sin embargo, la aparición de un personaje inesperado va a serles de crucial ayuda. Se trata de Rufus, un emisario del futuro, que les ofrece un alucinante viaje en el tiempo para conocer a algunos de los más importantes personajes de la historia.

Ficha técnica

Video trailer de la película

Enlaces de descarga

Rip de Bluray

Descargar Bill & Ted’s Excellent Adventure (1989) Full HD 1080p Latino – CMHDD




Aportes de DPeliculasHDmega la pass es:dpeliculashdmega.org Aportes de CinemaniaHD la pass es:cinemaniahdd.com

Películas relacionadas

  • Shotgun Wedding (2022) AMZN WEB-DL 1080p Latino

    Shotgun Wedding (2022) AMZN WEB-DL 1080p Latino

    2022
    Shotgun Wedding (2022) AMZN WEB-DL 1080p Latino

    1h 41m 2022

    Darcy y Tom reúnen a sus familias para la boda de destino definitiva, pero cuando toman como rehenes...

    Director: Jason Moore

    Género: Acción

    Actores: Steve Coulter

  • M3GAN (2023) AMZN WEB-DL 4K UHD HDR Latino

    M3GAN (2023) AMZN WEB-DL 4K UHD HDR Latino

    2022
    M3GAN (2023) AMZN WEB-DL 4K UHD HDR Latino

    1h 42m 2022

    Descargar M3GAN (2023) AMZN WEB-DL 4K UHD HDR Latino. Cuando Gemma se convierte en la cuidadora de su...

    Director: Stephen W. Moore

    Género: 4K HDR

    Actores: Violet McGraw

  • M3GAN (2022) MA WEB-DL 1080p Latino

    M3GAN (2022) MA WEB-DL 1080p Latino

    2022
    M3GAN (2022) MA WEB-DL 1080p Latino

    1h 42m 2022

    Descargar M3GAN (2022) MA WEB-DL 1080p Latino. Cuando Gemma se convierte en la cuidadora de su sobrina...

    Director: Stephen W. Moore

    Género: Ciencia ficción

    Actores: Violet McGraw

  • Mar de sangre (2022) WEB-DL 1080p Latino

    Mar de sangre (2022) WEB-DL 1080p Latino

    2022
    Mar de sangre (2022) WEB-DL 1080p Latino

    1h 27m 2022

    Descargar Mar de sangre (2022) WEB-DL 1080p Latino. Un grupo de amigos que disfrutan de un fin de semana...

    Director: James Nunn

    Género: Acción

    Actores: Thomas Michael Flynn

  • Noche sin paz (2022) PLACEBO Full HD 1080p Latino

    Noche sin paz (2022) PLACEBO Full HD 1080p Latino

    2022
    Noche sin paz (2022) PLACEBO Full HD 1080p Latino

    1h 41m 2022

    Descargar Noche sin paz (2022) PLACEBO Full HD 1080p Latino. Cuando un equipo de mercenarios irrumpe...

    Director: Tyshana Hobson

    Género: Acción

    Actores: Yoon Cha-Lee

descargar Bill & Ted’s Excellent Adventure (1989) Full HD 1080p Latino – CMHDD Full 1080p 1080p gratis, Bill & Ted’s Excellent Adventure (1989) Full HD 1080p Latino – CMHDD Full 1080p mega 1 link, Bill & Ted’s Excellent Adventure (1989) Full HD 1080p Latino – CMHDD Full 1080p pelicula completa, descargar Bill & Ted’s Excellent Adventure (1989) Full HD 1080p Latino – CMHDD Full 1080p gratis en mega.

Bill & Ted’s Excellent Adventure (1989) Full HD 1080p Latino – CMHDD pelicula full hd, Bill & Ted’s Excellent Adventure (1989) Full HD 1080p Latino – CMHDD mega latino, Bill & Ted’s Excellent Adventure (1989) Full HD 1080p Latino – CMHDD 4k latino, Bill & Ted’s Excellent Adventure (1989) Full HD 1080p Latino – CMHDD pelicula completa, Bill & Ted’s Excellent Adventure (1989) Full HD 1080p Latino – CMHDD descargar gratis, descargar Bill & Ted’s Excellent Adventure (1989) Full HD 1080p Latino – CMHDD pelicula latino, Bill & Ted’s Excellent Adventure (1989) Full HD 1080p Latino – CMHDD 1 link mega, Bill & Ted’s Excellent Adventure (1989) Full HD 1080p Latino – CMHDD 1 link google drive, Bill & Ted’s Excellent Adventure (1989) Full HD 1080p Latino – CMHDD hd 1080p latino.
Comentarios 0