×

¿Problemas para descargar con Mozilla, EDGE? Deshabilita la opción "Abrir vinculos en una pestaña nueva" tal como lo muestra ésta imagen.

Bill & Ted’s Bogus Journey (1991) Full HD 1080p Latino – CMHDD

414 vistas

Información de Bill & Ted’s Bogus Journey (1991) Full HD 1080p Latino – CMHDD

Datos de la película

  • Calidad: Full 1080p
  • Audio: Español Latino AC3 2.0 DVD - Ingles DTS 5.1 BLURAY
  • Subtitulos: Español Latino SRT
  • Resolución: 1920x1080p
  • Formato: MKV
  • Codec: H.264
  • Encoder: Dracarys
  • Mediainfo: Clic para Mostrar Datos Ver
  • Format                      : Matroska
    Format version              : Version 4
    File size                   : 8.71 GiB
    Duration                    : 1 h 33 min
    Overall bit rate            : 13.3 Mb/s
    Movie name                  : Bill & Ted's Bogus Journey (1991) Full HD 1080p Latino - CMHDD
    Encoded date                : UTC 2020-09-03 21:34:38
    Writing application         : mkvmerge v46.0.0 ('No Deeper Escape') 64-bit
    Writing library             : libebml v1.3.10 + libmatroska v1.5.2

    Video
    ID                          : 1
    Format                      : AVC
    Format/Info                 : Advanced Video Codec
    Format profile              : High@L4.1
    Format settings             : CABAC / 4 Ref Frames
    Format settings, CABAC      : Yes
    Format settings, Reference  : 4 frames
    Codec ID                    : V_MPEG4/ISO/AVC
    Duration                    : 1 h 33 min
    Bit rate                    : 11.6 Mb/s
    Width                       : 1 920 pixels
    Height                      : 1 080 pixels
    Display aspect ratio        : 16:9
    Frame rate mode             : Constant
    Frame rate                  : 23.976 (24000/1001) FPS
    Color space                 : YUV
    Chroma subsampling          : 4:2:0
    Bit depth                   : 8 bits
    Scan type                   : Progressive
    Bits/(Pixel*Frame)          : 0.233
    Stream size                 : 7.60 GiB (87%)
    Writing library             : x264 core 157 r2935 545de2f
    Encoding settings           : cabac=1 / ref=4 / deblock=1:0:0 / analyse=0x3:0x133 / me=tesa / subme=11 / psy=1 / psy_rd=1.00:0.00 / mixed_ref=1 / me_range=24 / chroma_me=1 / trellis=2 / 8x8dct=1 / cqm=0 / deadzone=21,11 / fast_pskip=0 / chroma_qp_offset=-2 / threads=24 / lookahead_threads=6 / sliced_threads=0 / nr=0 / decimate=1 / interlaced=0 / bluray_compat=0 / constrained_intra=0 / bframes=16 / b_pyramid=2 / b_adapt=2 / b_bias=0 / direct=3 / weightb=1 / open_gop=0 / weightp=2 / keyint=240 / keyint_min=24 / scenecut=40 / intra_refresh=0 / rc_lookahead=60 / rc=crf / mbtree=1 / crf=20.0 / qcomp=0.60 / qpmin=0 / qpmax=69 / qpstep=4 / vbv_maxrate=62500 / vbv_bufsize=78125 / crf_max=0.0 / nal_hrd=none / filler=0 / ip_ratio=1.40 / aq=1:1.00
    Default                     : Yes
    Forced                      : No
    Color range                 : Limited
    Color primaries             : BT.709
    Transfer characteristics    : BT.709
    Matrix coefficients         : BT.709

    Audio #1
    ID                          : 2
    Format                      : AC-3
    Format/Info                 : Audio Coding 3
    Commercial name             : Dolby Digital
    Codec ID                    : A_AC3
    Duration                    : 1 h 33 min
    Bit rate mode               : Constant
    Bit rate                    : 192 kb/s
    Channel(s)                  : 2 channels
    Channel layout              : L R
    Sampling rate               : 48.0 kHz
    Frame rate                  : 31.250 FPS (1536 SPF)
    Compression mode            : Lossy
    Stream size                 : 129 MiB (1%)
    Language                    : Spanish
    Service kind                : Complete Main
    Default                     : Yes
    Forced                      : No

    Audio #2
    ID                          : 3
    Format                      : DTS
    Format/Info                 : Digital Theater Systems
    Codec ID                    : A_DTS
    Duration                    : 1 h 33 min
    Bit rate mode               : Constant
    Bit rate                    : 1 509 kb/s
    Channel(s)                  : 6 channels
    Channel layout              : C L R Ls Rs LFE
    Sampling rate               : 48.0 kHz
    Frame rate                  : 93.750 FPS (512 SPF)
    Bit depth                   : 24 bits
    Compression mode            : Lossy
    Stream size                 : 1 013 MiB (11%)
    Language                    : English
    Default                     : No
    Forced                      : No

    Text
    ID                          : 4
    Format                      : UTF-8
    Codec ID                    : S_TEXT/UTF8
    Codec ID/Info               : UTF-8 Plain Text
    Duration                    : 1 h 27 min
    Bit rate                    : 44 b/s
    Count of elements           : 861
    Stream size                 : 28.4 KiB (0%)
    Language                    : Spanish
    Default                     : No
    Forced                      : No

    Menu
    00:00:00.000                : :Chapter 1
    00:08:18.540                : :Chapter 2
    00:15:29.679                : :Chapter 3
    00:21:37.713                : :Chapter 4
    00:25:27.359                : :Chapter 5
    00:30:32.205                : :Chapter 6
    00:36:15.882                : :Chapter 7
    00:46:35.501                : :Chapter 8
    00:51:27.209                : :Chapter 9
    00:59:20.390                : :Chapter 10
    01:08:25.435                : :Chapter 11
    01:25:42.429                : :Chapter 12

  • Peso: 8.71 GiB

Sinopsis

Una cabina telefónica es el instrumento que utilizan Billy y Ted para viajar a sus anchas por el espacio y el tiempo. Viajarán al Infierno, al Cielo, se harán amigos de la Muerte (que acabará convirtiéndose en ídolo del rock), y conocerán a los marcianos, al conejo de Pascua, y a Albert Einstein.

Ficha técnica

Video trailer de la película

Enlaces de descarga

Rip de Bluray

Descargar Bill & Ted’s Bogus Journey (1991) Full HD 1080p Latino – CMHDD




Aportes de DPeliculasHDmega la pass es:dpeliculashdmega.org Aportes de CinemaniaHD la pass es:cinemaniahdd.com

Películas relacionadas

descargar Bill & Ted’s Bogus Journey (1991) Full HD 1080p Latino – CMHDD Full 1080p 1080p gratis, Bill & Ted’s Bogus Journey (1991) Full HD 1080p Latino – CMHDD Full 1080p mega 1 link, Bill & Ted’s Bogus Journey (1991) Full HD 1080p Latino – CMHDD Full 1080p pelicula completa, descargar Bill & Ted’s Bogus Journey (1991) Full HD 1080p Latino – CMHDD Full 1080p gratis en mega.

Bill & Ted’s Bogus Journey (1991) Full HD 1080p Latino – CMHDD pelicula full hd, Bill & Ted’s Bogus Journey (1991) Full HD 1080p Latino – CMHDD mega latino, Bill & Ted’s Bogus Journey (1991) Full HD 1080p Latino – CMHDD 4k latino, Bill & Ted’s Bogus Journey (1991) Full HD 1080p Latino – CMHDD pelicula completa, Bill & Ted’s Bogus Journey (1991) Full HD 1080p Latino – CMHDD descargar gratis, descargar Bill & Ted’s Bogus Journey (1991) Full HD 1080p Latino – CMHDD pelicula latino, Bill & Ted’s Bogus Journey (1991) Full HD 1080p Latino – CMHDD 1 link mega, Bill & Ted’s Bogus Journey (1991) Full HD 1080p Latino – CMHDD 1 link google drive, Bill & Ted’s Bogus Journey (1991) Full HD 1080p Latino – CMHDD hd 1080p latino.
Comentarios 4
  • ROBERTO - 05 septiembre, 2020

    El link lleva a la Historia sin fin. Saludos

    • Dracarys - 05 septiembre, 2020

      Reparado

  • Cristian García - 05 septiembre, 2020

    Hola…quise descargar esta peli y me salio la historia sin fin

    • Dracarys - 05 septiembre, 2020

      Reparado