×

¿Problemas para descargar con Mozilla, EDGE? Deshabilita la opción "Abrir vinculos en una pestaña nueva" tal como lo muestra ésta imagen.

Bill & Ted: Salvando el universo (2020) HD 1080p Latino

399 vistas

Información de Bill & Ted: Salvando el universo (2020) HD 1080p Latino

Datos de la película

  • Calidad: 1080p
  • Audio: Español Latino AC3 5.1 BLURAY - Ingles AC3 5.1 BLURAY
  • Subtitulos: Español Latino SRT - Ingles SRT
  • Resolución: 1920x804p
  • Formato: MKV
  • Codec: H.264
  • Encoder: Melkor
  • Mediainfo: Clic para Mostrar Datos Ver
  • Bill & Ted Salvando el universo (2020) HD 1080p Latino.mkv
    Format                      : Matroska
    Format version              : Version 4
    File size                   : 2.95 GiB
    Duration                    : 1 h 31 min
    Overall bit rate            : 4 590 kb/s
    Movie name                  : Bill and Ted Face The Music (2020) CinemaniaHDD.Net
    Encoded date                : UTC 2020-11-12 02:53:49
    Writing application         : mkvmerge v51.0.0 ('I Wish') 64-bit
    Writing library             : libebml v1.4.0 + libmatroska v1.6.2
    Attachments                 : CINEMANIAHD.png

    Video
    ID                          : 1
    Format                      : AVC
    Format/Info                 : Advanced Video Codec
    Format profile              : High@L4.1
    Format settings             : CABAC / 5 Ref Frames
    Format settings, CABAC      : Yes
    Format settings, Reference  : 5 frames
    Codec ID                    : V_MPEG4/ISO/AVC
    Duration                    : 1 h 31 min
    Bit rate                    : 3 500 kb/s
    Width                       : 1 920 pixels
    Height                      : 804 pixels
    Display aspect ratio        : 2.40:1
    Frame rate mode             : Constant
    Frame rate                  : 23.976 (24000/1001) FPS
    Color space                 : YUV
    Chroma subsampling          : 4:2:0
    Bit depth                   : 8 bits
    Scan type                   : Progressive
    Bits/(Pixel*Frame)          : 0.095
    Stream size                 : 2.25 GiB (76%)
    Title                       : HD1080p [CinemaniaHDD]
    Writing library             : x264 core 157 r2935 545de2f
    Encoding settings           : cabac=1 / ref=5 / deblock=1:-1:-1 / analyse=0x3:0x133 / me=umh / subme=9 / psy=1 / psy_rd=1.00:0.15 / mixed_ref=1 / me_range=16 / chroma_me=1 / trellis=2 / 8x8dct=1 / cqm=0 / deadzone=21,11 / fast_pskip=1 / chroma_qp_offset=-3 / threads=24 / lookahead_threads=2 / sliced_threads=0 / nr=0 / decimate=1 / interlaced=0 / bluray_compat=0 / constrained_intra=0 / bframes=3 / b_pyramid=2 / b_adapt=2 / b_bias=0 / direct=3 / weightb=1 / open_gop=0 / weightp=2 / keyint=240 / keyint_min=24 / scenecut=40 / intra_refresh=0 / rc_lookahead=60 / rc=2pass / mbtree=1 / bitrate=3500 / ratetol=1.0 / qcomp=0.60 / qpmin=0 / qpmax=69 / qpstep=4 / cplxblur=20.0 / qblur=0.5 / vbv_maxrate=62500 / vbv_bufsize=78125 / nal_hrd=none / filler=0 / ip_ratio=1.40 / aq=1:1.00
    Default                     : Yes
    Forced                      : No
    Color range                 : Limited
    Color primaries             : BT.709
    Transfer characteristics    : BT.709
    Matrix coefficients         : BT.709

    Audio #1
    ID                          : 2
    Format                      : AC-3
    Format/Info                 : Audio Coding 3
    Commercial name             : Dolby Digital
    Codec ID                    : A_AC3
    Duration                    : 1 h 31 min
    Bit rate mode               : Constant
    Bit rate                    : 640 kb/s
    Channel(s)                  : 6 channels
    Channel layout              : L R C LFE Ls Rs
    Sampling rate               : 48.0 kHz
    Frame rate                  : 31.250 FPS (1536 SPF)
    Compression mode            : Lossy
    Delay relative to video     : -5 ms
    Stream size                 : 421 MiB (14%)
    Title                       : Español Latino [CinemaniaHDD]
    Language                    : Spanish
    Service kind                : Complete Main
    Default                     : Yes
    Forced                      : No

    Audio #2
    ID                          : 3
    Format                      : AC-3
    Format/Info                 : Audio Coding 3
    Commercial name             : Dolby Digital
    Codec ID                    : A_AC3
    Duration                    : 1 h 31 min
    Bit rate mode               : Constant
    Bit rate                    : 448 kb/s
    Channel(s)                  : 6 channels
    Channel layout              : L R C LFE Ls Rs
    Sampling rate               : 48.0 kHz
    Frame rate                  : 31.250 FPS (1536 SPF)
    Compression mode            : Lossy
    Delay relative to video     : -5 ms
    Stream size                 : 295 MiB (10%)
    Title                       : Ingles [CinemaniaHDD]
    Language                    : English
    Service kind                : Complete Main
    Default                     : No
    Forced                      : No

    Text #1
    ID                          : 4
    Format                      : UTF-8
    Codec ID                    : S_TEXT/UTF8
    Codec ID/Info               : UTF-8 Plain Text
    Duration                    : 38 min 7 s
    Bit rate                    : 2 b/s
    Count of elements           : 13
    Stream size                 : 627 Bytes (0%)
    Title                       : Forzados-SRT [CinemaniaHDD]
    Language                    : Spanish
    Default                     : Yes
    Forced                      : No

    Text #2
    ID                          : 5
    Format                      : UTF-8
    Codec ID                    : S_TEXT/UTF8
    Codec ID/Info               : UTF-8 Plain Text
    Duration                    : 1 h 31 min
    Bit rate                    : 70 b/s
    Count of elements           : 1575
    Stream size                 : 46.8 KiB (0%)
    Title                       : Español-SRT [CinemaniaHDD]
    Language                    : Spanish
    Default                     : No
    Forced                      : No

    Text #3
    ID                          : 6
    Format                      : UTF-8
    Codec ID                    : S_TEXT/UTF8
    Codec ID/Info               : UTF-8 Plain Text
    Duration                    : 1 h 31 min
    Bit rate                    : 63 b/s
    Count of elements           : 1583
    Stream size                 : 42.1 KiB (0%)
    Title                       : Ingles-SRT [CinemaniaHDD]
    Language                    : English
    Default                     : No
    Forced                      : No

    Menu
    00:00:00.000                : en:Studio Logo
    00:00:32.958                : en:Prologue
    00:01:56.709                : en:Wedding
    00:06:32.083                : en:Couples' Therapy
    00:09:52.917                : en:Respecting the Situation
    00:20:54.166                : en:Plagiarizer
    00:25:49.250                : en:Putting Plans in Place
    00:30:04.500                : en:Assembling a Band
    00:41:56.542                : en:More Members
    00:47:08.958                : en:Hell
    00:51:41.917                : en:Face the Music
    00:59:04.207                : en:The Last Member
    01:10:00.083                : en:The Prophesy
    01:24:14.708                : en:End Credits
    01:29:37.708                : en:One Last Thing to Do

  • Peso: 2.95 GiB

Sinopsis

Descargar Bill & Ted: Salvando el universo (2020) HD 1080p Latino. A dos aspirantes a rockeros de San Dimas, California, se les dijo una vez que salvarían el universo durante una aventura de viaje en el tiempo, pero se encuentran como padres de mediana edad que aún intentan poner en marcha una canción exitosa y cumplir su destino. Sin suerte e inspiración, Bill y Ted emprendieron otra aventura de viaje en el tiempo para buscar la canción que establecerá su mundo correcto y traerá armonía al universo tal como lo conocemos.

Ficha técnica

Video trailer de la película

Enlaces de descarga

Rip de Bluray

Descargar Bill & Ted: Salvando el universo (2020) HD 1080p Latino




Aportes de DPeliculasHDmega la pass es:dpeliculashdmega.org Aportes de CinemaniaHD la pass es:cinemaniahdd.com

Películas relacionadas

  • Hombre de familia (2000) REMUX 1080p Latino

    Hombre de familia (2000) REMUX 1080p Latino

    2000
    Hombre de familia (2000) REMUX 1080p Latino

    2h 1m 2000

    Descargar Hombre de familia (2000) REMUX 1080p Latino. Jack Campbell es un egocéntrico broker de Wall...

    Director: Robert Schroer

    Género: Comedia

    Actores: Wass Stevens

  • Anon (2018) REMUX 1080p Latino

    Anon (2018) REMUX 1080p Latino

    2018
    Anon (2018) REMUX 1080p Latino

    1h 40m 2018

    Descargar Anon (2018) REMUX 1080p Latino. Anon nos lleva hasta un futuro no muy lejano al estilo soviético,...

    Director: Sarah Campbell

    Género: Ciencia ficción

    Actores: Zion Lee

descargar Bill & Ted: Salvando el universo (2020) HD 1080p Latino 1080p 1080p gratis, Bill & Ted: Salvando el universo (2020) HD 1080p Latino 1080p mega 1 link, Bill & Ted: Salvando el universo (2020) HD 1080p Latino 1080p pelicula completa, descargar Bill & Ted: Salvando el universo (2020) HD 1080p Latino 1080p gratis en mega.

Bill & Ted: Salvando el universo (2020) HD 1080p Latino pelicula full hd, Bill & Ted: Salvando el universo (2020) HD 1080p Latino mega latino, Bill & Ted: Salvando el universo (2020) HD 1080p Latino 4k latino, Bill & Ted: Salvando el universo (2020) HD 1080p Latino pelicula completa, Bill & Ted: Salvando el universo (2020) HD 1080p Latino descargar gratis, descargar Bill & Ted: Salvando el universo (2020) HD 1080p Latino pelicula latino, Bill & Ted: Salvando el universo (2020) HD 1080p Latino 1 link mega, Bill & Ted: Salvando el universo (2020) HD 1080p Latino 1 link google drive, Bill & Ted: Salvando el universo (2020) HD 1080p Latino hd 1080p latino.
Comentarios 0